<?xml version="1.0" standalone="no"?>
<!DOCTYPE svg PUBLIC "-//W3C//DTD SVG 1.1//EN" "http://www.w3.org/Graphics/SVG/1.1/DTD/svg11.dtd" >
<svg xmlns="http://www.w3.org/2000/svg" xmlns:xlink="http://www.w3.org/1999/xlink" version="1.1">
<metadata>
Created by FontForge 20190801 at Wed Feb 23 17:43:47 2011
 By Jimmy Wärting
Copyright (c) 2010 by Leftloft. All rights reserved.
</metadata>
<defs>
<font id="LFTEtica-SemiBold" horiz-adv-x="600" >
  <font-face 
    font-family="LFT Etica SB"
    font-weight="600"
    font-stretch="normal"
    units-per-em="1000"
    panose-1="2 0 5 3 0 0 0 2 0 4"
    ascent="730"
    descent="-270"
    x-height="528"
    cap-height="720"
    bbox="-210 -282 2267.75 960"
    underline-thickness="50"
    underline-position="-100"
    stemh="125"
    stemv="138"
    unicode-range="U+0020-FB04"
  />
<missing-glyph horiz-adv-x="171" 
 />
    <glyph glyph-name="ff" unicode="ff" horiz-adv-x="632" 
d="M396 0v428h-170v-428h-133v428h-66v79l66 15v43c0 94 45 155 148 155c33 0 61 -4 90 -11l-9 -87c-14 4 -30 7 -46 7c-29 0 -50 -16 -50 -59v-42h170v49c0 94 45 155 148 155c32 0 60 -3 88 -11l-7 -87c-14 4 -30 7 -46 7c-30 0 -50 -16 -50 -59v-54h91v-100h-91v-428
h-133z" />
    <glyph glyph-name="fi" unicode="fi" horiz-adv-x="601" 
d="M93 0v428h-66v79l66 15v55c0 94 45 155 148 155c33 0 60 -3 88 -11l-7 -87c-14 4 -30 7 -46 7c-29 0 -50 -16 -50 -59v-54h302v-528h-133v428h-169v-428h-133zM384 663c0 44 35 68 80 68c47 0 80 -24 80 -68c0 -42 -33 -66 -80 -66c-44 0 -80 24 -80 66z" />
    <glyph glyph-name="fl" unicode="fl" horiz-adv-x="599" 
d="M93 0v428h-66v79l66 15v55c0 94 45 155 148 155c33 0 60 -3 88 -11l-7 -87c-14 4 -30 7 -46 7c-29 0 -50 -16 -50 -59v-54h170v192h133v-720h-133v428h-170v-428h-133z" />
    <glyph glyph-name="ft" unicode="ft" horiz-adv-x="653" 
d="M621 428h-96v-296c0 -31 10 -43 34 -43c16 0 47 4 62 9l13 -91c-35 -12 -84 -20 -124 -20c-79 0 -117 43 -117 118v323h-167v-428h-133v428h-66v79l66 15v55c0 94 45 155 148 155c33 0 60 -3 88 -11l-7 -87c-14 4 -30 7 -46 7c-29 0 -50 -16 -50 -59v-54h169l14 151h116
v-151h96v-100z" />
    <glyph glyph-name="tt" unicode="tt" horiz-adv-x="653" 
d="M622 428h-97v-296c0 -31 10 -43 34 -43c16 0 47 4 62 9l13 -91c-35 -12 -84 -20 -124 -20c-79 0 -117 43 -117 118v323h-167v-298c0 -31 14 -41 38 -41c15 0 29 3 44 8l13 -90c-35 -13 -71 -20 -110 -20c-79 0 -116 43 -116 118v323h-70v79l72 21l14 150h115v-150h169
l14 151h116v-151h97v-100z" />
    <glyph glyph-name="ffi" unicode="ffi" horiz-adv-x="903" 
d="M395 0v428h-169v-428h-133v428h-66v79l66 15v43c0 94 45 155 148 155c33 0 61 -4 90 -11l-9 -87c-14 4 -30 7 -46 7c-29 0 -50 -16 -50 -59v-42h169v49c0 94 45 155 148 155c33 0 60 -3 88 -11l-7 -87c-14 4 -30 7 -46 7c-29 0 -50 -16 -50 -59v-54h302v-528h-133v428
h-169v-428h-133zM686 663c0 44 35 68 80 68c47 0 80 -24 80 -68c0 -42 -33 -66 -80 -66c-44 0 -80 24 -80 66z" />
    <glyph glyph-name="ffl" unicode="ffl" horiz-adv-x="899" 
d="M393 0v428h-167v-428h-133v428h-66v79l66 15v43c0 94 45 155 148 155c33 0 61 -4 90 -11l-9 -87c-14 4 -30 7 -46 7c-29 0 -50 -16 -50 -59v-42h167v49c0 94 45 155 148 155c33 0 60 -3 88 -11l-7 -87c-14 4 -30 7 -46 7c-29 0 -50 -16 -50 -59v-54h170v192h133v-720
h-133v428h-170v-428h-133z" />
    <glyph glyph-name="fft" unicode="fft" horiz-adv-x="954" 
d="M921 428h-95v-296c0 -31 10 -43 34 -43c16 0 47 4 62 9l13 -91c-35 -12 -84 -20 -124 -20c-79 0 -117 43 -117 118v323h-166v-428h-133v428h-169v-428h-133v428h-66v79l66 15v43c0 94 45 155 148 155c33 0 61 -4 90 -11l-9 -87c-14 4 -30 7 -46 7c-29 0 -50 -16 -50 -59
v-42h169v49c0 94 45 155 148 155c33 0 60 -3 88 -11l-7 -87c-14 4 -30 7 -46 7c-29 0 -50 -16 -50 -59v-54h168l14 151h116v-151h95v-100z" />
    <glyph glyph-name=".notdef" horiz-adv-x="171" 
 />
    <glyph glyph-name=".notdef" horiz-adv-x="171" 
 />
    <glyph glyph-name="space" unicode=" " horiz-adv-x="205" 
 />
    <glyph glyph-name="quotesingle" unicode="'" horiz-adv-x="218" 
d="M160 720v-279h-102v279h102z" />
    <glyph glyph-name="quotedbl" unicode="&#x22;" horiz-adv-x="379" 
d="M160 720v-279h-102v279h102zM321 720v-279h-102v279h102z" />
    <glyph glyph-name="numbersign" unicode="#" horiz-adv-x="699" 
d="M299 380l-39 -120h132l42 120h-135zM659 380h-139l-40 -120h121v-84h-149l-62 -168l-80 18l54 150h-133l-62 -168l-79 18l53 150h-100v84h129l41 120h-112v84h141l64 182l81 -18l-57 -164h133l65 179l80 -15l-58 -164h109v-84z" />
    <glyph glyph-name="ampersand" unicode="&#x26;" horiz-adv-x="739" 
d="M276 571c0 -31 20 -63 59 -104c53 31 81 62 81 104c0 38 -24 64 -69 64s-71 -27 -71 -64zM312 92c53 0 101 28 137 71l-164 184c-61 -30 -94 -72 -94 -138c0 -64 45 -117 121 -117zM601 -10l-83 91c-67 -66 -130 -96 -225 -96c-134 0 -227 84 -227 212
c0 101 55 171 154 221c-41 44 -67 87 -67 148c0 88 73 162 190 162c102 0 182 -56 182 -153c0 -82 -54 -133 -127 -174l78 -86l107 98l78 -79l-112 -101l145 -165z" />
    <glyph glyph-name="ampersand.alt" horiz-adv-x="739" 
d="M601 -10l-83 91c-67 -66 -130 -96 -225 -96c-134 0 -227 84 -227 212c0 101 56 171 155 221c-41 44 -66 87 -66 148c0 88 71 162 197 162c93 0 176 -41 176 -162v-22h-110v21c0 48 -27 73 -72 73s-69 -27 -69 -60c0 -35 19 -64 67 -117l132 -146l107 98l78 -79l-112 -101
l145 -165zM312 92c53 0 101 28 137 71l-163 184c-65 -31 -95 -72 -95 -138c0 -64 45 -117 121 -117z" />
    <glyph glyph-name="asterisk" unicode="*" horiz-adv-x="457" 
d="M315 394l-89 93l-90 -93l-50 36l68 102l-104 42l23 57l110 -25l14 115h58l15 -114l116 25l21 -58l-109 -42l65 -102z" />
    <glyph glyph-name="comma" unicode="," horiz-adv-x="250" 
d="M44 56c0 40 32 71 74 71c57 0 82 -46 82 -96c0 -81 -45 -152 -139 -185l-20 47c61 29 83 64 85 107c-9 -3 -17 -5 -26 -5c-35 0 -56 26 -56 61z" />
    <glyph glyph-name="hyphen" unicode="-" horiz-adv-x="328" 
d="M30 225v105h268v-105h-268z" />
    <glyph glyph-name="period" unicode="." horiz-adv-x="253" 
d="M50 57c0 45 28 74 76 74c47 0 77 -29 77 -71c0 -43 -30 -73 -77 -73c-49 0 -76 30 -76 70z" />
    <glyph glyph-name="colon" unicode=":" horiz-adv-x="253" 
d="M50 434c0 45 28 74 76 74c47 0 77 -29 77 -71c0 -43 -30 -73 -77 -73c-49 0 -76 30 -76 70zM50 57c0 45 28 74 76 74c47 0 77 -29 77 -71c0 -43 -30 -73 -77 -73c-49 0 -76 30 -76 70z" />
    <glyph glyph-name="semicolon" unicode=";" horiz-adv-x="253" 
d="M47 56c0 40 32 71 74 71c57 0 82 -46 82 -96c0 -81 -45 -152 -139 -185l-20 47c61 29 83 64 85 107c-9 -3 -17 -5 -26 -5c-35 0 -56 26 -56 61zM49 434c0 45 28 74 76 74c47 0 77 -29 77 -71c0 -43 -30 -73 -77 -73c-49 0 -76 30 -76 70z" />
    <glyph glyph-name="question" unicode="?" horiz-adv-x="547" 
d="M214 213v33c0 142 155 182 155 286c0 58 -37 87 -95 87c-61 0 -108 -38 -108 -114h-123c0 156 100 227 239 227c117 0 221 -60 221 -187c0 -151 -170 -198 -170 -312v-20h-119zM196 57c0 45 28 74 77 74c46 0 77 -29 77 -71c0 -43 -31 -73 -77 -73c-49 0 -77 30 -77 70z
" />
    <glyph glyph-name="exclam" unicode="!" horiz-adv-x="319" 
d="M106 213l-12 270v237h135v-237l-13 -270h-110zM83 57c0 45 28 74 76 74c47 0 77 -29 77 -71c0 -43 -30 -73 -77 -73c-49 0 -76 30 -76 70z" />
    <glyph glyph-name="exclamdown" unicode="&#xa1;" horiz-adv-x="319" 
d="M94 43l12 270h110l13 -270v-237h-135v237zM83 469c0 40 27 70 76 70c47 0 77 -30 77 -73c0 -42 -30 -71 -77 -71c-48 0 -76 29 -76 74z" />
    <glyph glyph-name="questiondown" unicode="&#xbf;" horiz-adv-x="547" 
d="M336 314v-33c0 -142 -155 -182 -155 -286c0 -58 37 -87 95 -87c61 0 108 38 108 114h123c0 -156 -100 -227 -239 -227c-117 0 -221 60 -221 187c0 151 170 198 170 312v20h119zM354 470c0 -45 -28 -74 -77 -74c-46 0 -77 29 -77 71c0 43 31 73 77 73c49 0 77 -30 77 -70z
" />
    <glyph glyph-name="at" unicode="@" horiz-adv-x="989" 
d="M559 184l40 158c-16 10 -39 15 -67 15c-105 0 -163 -92 -163 -191c0 -57 19 -96 73 -96c57 0 101 54 117 114zM694 390l-58 -229c-11 -46 -8 -86 44 -86c102 0 158 126 158 230c0 179 -125 269 -301 269c-221 0 -376 -163 -376 -385c0 -204 142 -323 341 -323
c107 0 202 31 286 93l39 -60c-91 -71 -218 -105 -332 -105c-238 0 -420 145 -420 396c0 270 205 459 465 459c227 0 383 -135 383 -339c0 -184 -123 -308 -256 -308c-68 0 -104 27 -107 78c-31 -48 -82 -77 -143 -77c-96 0 -134 71 -134 159c0 143 102 268 258 268
c63 0 111 -16 153 -40z" />
    <glyph glyph-name="A" unicode="A" horiz-adv-x="690" 
d="M275 720h139l259 -720h-148l-53 163h-254l-53 -163h-149zM255 279h179l-90 283z" />
    <glyph glyph-name="B" unicode="B" horiz-adv-x="652" 
d="M335 606h-124v-182h110c74 0 124 29 124 95c0 58 -39 87 -110 87zM211 318v-201h145c78 0 120 39 120 103c0 68 -48 98 -124 98h-141zM73 0v720h266c168 0 248 -57 248 -177c0 -72 -40 -141 -125 -161v-2c113 -16 155 -99 155 -166c0 -168 -132 -214 -299 -214h-245z" />
    <glyph glyph-name="C" unicode="C" horiz-adv-x="680" 
d="M577 195l74 -91c-85 -82 -173 -117 -283 -117c-216 0 -318 159 -318 373c0 211 110 372 324 372c150 0 266 -83 274 -253h-139c-5 64 -37 128 -134 128c-111 0 -177 -90 -177 -246c0 -166 71 -249 184 -249c86 0 144 39 195 83z" />
    <glyph glyph-name="D" unicode="D" horiz-adv-x="723" 
d="M312 598h-101v-477h101c147 0 212 80 212 237c0 154 -65 240 -212 240zM73 720h237c236 0 358 -131 358 -352c0 -259 -125 -368 -379 -368h-216v720z" />
    <glyph glyph-name="E" unicode="E" horiz-adv-x="606" 
d="M73 0v720h479v-122h-341v-173h310v-122h-310v-182h347v-121h-485z" />
    <glyph glyph-name="F" unicode="F" horiz-adv-x="569" 
d="M73 0v720h461v-122h-323v-184h285v-119h-285v-295h-138z" />
    <glyph glyph-name="G" unicode="G" horiz-adv-x="730" 
d="M408 269v115h260v-286c-83 -91 -196 -111 -278 -111c-255 0 -340 171 -340 373c0 218 107 372 332 372c200 0 273 -106 282 -235h-143c-4 61 -42 110 -139 110c-123 0 -187 -99 -187 -245c0 -158 60 -252 203 -252c52 0 102 11 138 41v118h-128z" />
    <glyph glyph-name="H" unicode="H" horiz-adv-x="719" 
d="M73 0v720h138v-293h297v293h138v-720h-138v302h-297v-302h-138z" />
    <glyph glyph-name="I" unicode="I" horiz-adv-x="288" 
d="M75 0v720h138v-720h-138z" />
    <glyph glyph-name="J" unicode="J" horiz-adv-x="427" 
d="M357 720v-535c0 -135 -60 -198 -177 -198c-56 0 -117 11 -155 27l17 108c28 -10 60 -16 93 -16c62 0 83 23 83 100v514h139z" />
    <glyph glyph-name="J.alt" horiz-adv-x="427" 
d="M357 720v-499c0 -135 -60 -221 -257 -221h-68v119h42c124 0 144 23 144 116v485h139z" />
    <glyph glyph-name="K" unicode="K" horiz-adv-x="675" 
d="M73 0v720h138v-297h101l165 297h154l-200 -351l227 -369h-160l-188 309h-99v-309h-138z" />
    <glyph glyph-name="L" unicode="L" horiz-adv-x="559" 
d="M73 720h138v-598h313v-122h-451v720z" />
    <glyph glyph-name="M" unicode="M" horiz-adv-x="881" 
d="M832 0h-130l-47 486l-158 -486h-111l-158 487l-47 -487h-132l70 720h148l174 -529l178 529h142z" />
    <glyph glyph-name="N" unicode="N" horiz-adv-x="725" 
d="M73 0v720h122l320 -487v487h137v-720h-121l-322 481v-481h-136z" />
    <glyph glyph-name="O" unicode="O" horiz-adv-x="786" 
d="M195 364c0 -161 74 -251 198 -251c126 0 198 89 198 251c0 148 -73 242 -197 242c-126 0 -199 -95 -199 -242zM50 364c0 232 137 368 343 368c207 0 343 -136 343 -368c0 -246 -137 -377 -343 -377s-343 132 -343 377z" />
    <glyph glyph-name="P" unicode="P" horiz-adv-x="630" 
d="M323 601h-112v-237h106c90 0 134 44 134 119s-39 118 -128 118zM73 0v720h261c165 0 254 -86 254 -231c0 -147 -85 -238 -264 -238h-113v-251h-138z" />
    <glyph glyph-name="Q" unicode="Q" horiz-adv-x="786" 
d="M688 -102l-255 91c-13 -1 -26 -2 -40 -2c-206 0 -343 132 -343 377c0 232 137 368 343 368c207 0 343 -136 343 -368c0 -145 -57 -249 -145 -304v-5l143 -45zM195 364c0 -161 74 -251 198 -251c126 0 198 89 198 251c0 148 -73 242 -197 242c-126 0 -199 -95 -199 -242z
" />
    <glyph glyph-name="Q.alt" horiz-adv-x="786" 
d="M50 364c0 232 137 368 343 368c207 0 343 -136 343 -368c0 -219 -109 -347 -277 -372v-131h-137v132c-166 27 -272 155 -272 371zM195 364c0 -161 74 -251 198 -251c126 0 198 89 198 251c0 148 -73 242 -197 242c-126 0 -199 -95 -199 -242z" />
    <glyph glyph-name="R" unicode="R" horiz-adv-x="663" 
d="M73 720h259c176 0 264 -89 264 -225c0 -92 -37 -157 -115 -198l154 -297h-150l-133 265c-21 -3 -40 -5 -64 -5h-77v-260h-138v720zM326 601h-115v-230h109c90 0 135 41 135 118c0 75 -41 112 -129 112z" />
    <glyph glyph-name="S" unicode="S" horiz-adv-x="611" 
d="M29 107l69 85c66 -55 140 -90 213 -90c63 0 109 35 109 94c0 54 -29 84 -151 118c-150 42 -211 96 -211 209c0 141 109 209 250 209c94 0 179 -34 246 -101l-67 -82c-53 47 -116 71 -176 71c-65 0 -111 -28 -111 -83c0 -62 48 -80 167 -119c138 -45 197 -96 197 -208
c0 -139 -101 -223 -258 -223c-112 0 -206 45 -277 120z" />
    <glyph glyph-name="T" unicode="T" horiz-adv-x="613" 
d="M238 0v598h-216v122h569v-122h-215v-598h-138z" />
    <glyph glyph-name="U" unicode="U" horiz-adv-x="711" 
d="M70 720h138v-442c0 -114 57 -168 148 -168c103 0 147 56 147 168v442h138v-448c0 -189 -103 -284 -286 -284c-177 0 -285 87 -285 284v448z" />
    <glyph glyph-name="V" unicode="V" horiz-adv-x="646" 
d="M241 0l-227 720h145l164 -559l167 559h142l-230 -720h-161z" />
    <glyph glyph-name="W" unicode="W" horiz-adv-x="939" 
d="M198 0l-183 720h141l128 -541l123 541h126l125 -541l124 541h142l-183 -720h-147l-124 507l-122 -507h-150z" />
    <glyph glyph-name="X" unicode="X" horiz-adv-x="647" 
d="M16 0l223 367l-215 353h153l147 -249l150 249h157l-227 -363l222 -357h-158l-147 244l-144 -244h-161z" />
    <glyph glyph-name="Y" unicode="Y" horiz-adv-x="639" 
d="M246 0v287l-236 433h151l156 -296l157 296h155l-244 -433v-287h-139z" />
    <glyph glyph-name="Z" unicode="Z" horiz-adv-x="625" 
d="M36 0v88l347 510h-327v122h533v-55l-378 -544h377v-121h-552z" />
    <glyph glyph-name="a" unicode="a" horiz-adv-x="554" 
d="M358 203v14c-15 3 -36 5 -63 5c-72 0 -121 -19 -121 -78c0 -39 25 -59 72 -59c69 0 112 63 112 118zM491 346v-346h-106l-14 71c-38 -56 -92 -84 -166 -84c-95 0 -163 52 -163 155c0 84 60 167 241 167c30 0 50 -1 75 -4v39c0 63 -33 90 -90 90c-64 0 -105 -20 -156 -50
l-45 80c57 45 136 76 215 76c132 0 209 -57 209 -194z" />
    <glyph glyph-name="b" unicode="b" horiz-adv-x="623" 
d="M200 360v-201c21 -30 60 -61 115 -61c73 0 118 50 118 164c0 113 -39 168 -114 168c-51 0 -89 -30 -119 -70zM172 0h-105v720h133v-253c38 44 91 73 159 73c127 0 215 -93 215 -274c0 -172 -71 -278 -232 -278c-79 0 -132 42 -159 77z" />
    <glyph glyph-name="c" unicode="c" horiz-adv-x="554" 
d="M466 146l49 -84c-57 -47 -131 -75 -218 -75c-149 0 -251 101 -251 276c0 169 104 277 260 277c135 0 211 -74 215 -211h-111c-7 70 -46 103 -102 103c-75 0 -122 -56 -122 -164c0 -101 42 -170 130 -170c56 0 98 19 150 48z" />
    <glyph glyph-name="d" unicode="d" horiz-adv-x="620" 
d="M437 0l-7 68c-27 -37 -80 -81 -164 -81c-147 0 -217 106 -217 275c0 179 94 278 222 278c67 0 116 -31 152 -70v250h132v-720h-118zM422 158v209c-20 24 -60 60 -116 60c-72 0 -117 -53 -117 -163c0 -89 29 -165 120 -165c54 0 92 34 113 59z" />
    <glyph glyph-name="e" unicode="e" horiz-adv-x="571" 
d="M472 142l43 -87c-62 -46 -134 -68 -214 -68c-159 0 -255 96 -255 273c0 170 99 280 256 280c146 0 227 -85 227 -256c0 -12 -1 -56 -2 -65h-341c6 -72 41 -122 131 -122c53 0 96 14 155 45zM187 315h215c0 67 -24 125 -99 125c-88 0 -114 -82 -116 -125z" />
    <glyph glyph-name="f" unicode="f" horiz-adv-x="329" 
d="M93 0v428h-66v79l66 15v55c0 94 45 155 148 155c33 0 60 -3 88 -11l-7 -87c-14 4 -30 7 -46 7c-29 0 -50 -16 -50 -59v-54h91v-100h-91v-428h-133z" />
    <glyph glyph-name="g" unicode="g" horiz-adv-x="625" 
d="M555 528v-499c0 -181 -79 -239 -248 -239c-75 0 -146 16 -191 33l21 97c48 -13 98 -26 160 -26c97 0 130 38 130 136v49c-37 -46 -94 -76 -162 -76c-139 0 -216 92 -216 258c0 165 75 279 225 279c76 0 131 -44 162 -80l9 68h110zM422 170v195c-18 24 -63 62 -117 62
c-75 0 -116 -54 -116 -158c0 -99 36 -156 118 -156c56 0 92 32 115 57z" />
    <glyph glyph-name="h" unicode="h" horiz-adv-x="590" 
d="M67 720h133v-256c38 42 96 76 163 76c106 0 164 -69 164 -187v-353h-133v320c0 61 -14 107 -84 107c-46 0 -86 -32 -110 -59v-368h-133v720z" />
    <glyph glyph-name="i" unicode="i" horiz-adv-x="278" 
d="M62 663c0 45 35 69 79 69c47 0 80 -24 80 -69c0 -43 -33 -67 -80 -67c-44 0 -79 24 -79 67zM205 528v-528h-132v528h132z" />
    <glyph glyph-name="j" unicode="j" horiz-adv-x="278" 
d="M205 528v-578c0 -98 -39 -154 -144 -154c-32 0 -66 6 -91 14l10 93c13 -3 33 -6 47 -6c32 0 46 11 46 60v571h132zM60 663c0 45 35 69 80 69c47 0 80 -24 80 -69c0 -43 -33 -67 -80 -67c-44 0 -80 24 -80 67z" />
    <glyph glyph-name="j.alt" horiz-adv-x="278" 
d="M205 528v-575c0 -98 -39 -157 -165 -157h-69v106h45c45 0 57 11 57 60v566h132zM60 663c0 45 35 69 80 69c47 0 80 -24 80 -69c0 -43 -33 -67 -80 -67c-44 0 -80 24 -80 67z" />
    <glyph glyph-name="k" unicode="k" horiz-adv-x="567" 
d="M200 720v-374h65l116 182h146l-157 -234l181 -294h-155l-140 236h-56v-236h-133v720h133z" />
    <glyph glyph-name="l" unicode="l" horiz-adv-x="273" 
d="M203 0h-133v720h133v-720z" />
    <glyph glyph-name="m" unicode="m" horiz-adv-x="855" 
d="M67 528h111l11 -69c35 41 85 81 160 81c68 0 108 -31 128 -79c40 42 92 79 168 79c104 0 147 -68 147 -174v-366h-133v340c0 54 -14 86 -65 86c-44 0 -81 -36 -98 -54v-372h-132v336c0 55 -11 90 -62 90c-47 0 -84 -36 -102 -56v-370h-133v528z" />
    <glyph glyph-name="m.alt" horiz-adv-x="855" 
d="M67 528h253c74 0 113 -23 133 -71c51 49 116 83 192 83c104 0 147 -68 147 -174v-366h-133v340c0 54 -14 86 -65 86c-44 0 -81 -36 -98 -54v-372h-132v336c0 53 -15 80 -72 80h-92v-416h-133v528z" />
    <glyph glyph-name="n" unicode="n" horiz-adv-x="590" 
d="M67 528h111l11 -70c38 44 97 82 171 82c111 0 167 -71 167 -186v-354h-133v314c0 79 -27 113 -83 113c-53 0 -95 -40 -111 -59v-368h-133v528z" />
    <glyph glyph-name="o" unicode="o" horiz-adv-x="617" 
d="M186 264c0 -118 51 -165 122 -165s123 47 123 165c0 117 -52 166 -123 166s-122 -53 -122 -166zM46 261c0 182 113 279 264 279c150 0 261 -95 261 -276c0 -180 -114 -277 -268 -277c-158 0 -257 97 -257 274z" />
    <glyph glyph-name="p" unicode="p" horiz-adv-x="623" 
d="M200 362v-206c18 -22 62 -57 118 -57c70 0 115 49 115 163c0 109 -37 167 -112 167c-52 0 -96 -36 -121 -67zM200 -200h-133v728h110l14 -69c47 53 103 81 172 81c127 0 211 -93 211 -274c0 -172 -74 -278 -221 -278c-80 0 -131 41 -153 65v-253z" />
    <glyph glyph-name="q" unicode="q" horiz-adv-x="621" 
d="M421 -200v253c-23 -25 -71 -65 -150 -65c-152 0 -222 105 -222 274c0 179 94 278 227 278c64 0 117 -30 160 -76l17 64h102v-728h-134zM422 157v210c-19 23 -60 60 -116 60c-72 0 -117 -53 -117 -163c0 -89 29 -165 120 -165c54 0 92 33 113 58z" />
    <glyph glyph-name="r" unicode="r" horiz-adv-x="371" 
d="M173 528l12 -76c25 49 68 88 117 88c19 0 37 -5 52 -11l-10 -121c-17 5 -31 7 -50 7c-40 0 -77 -36 -94 -65v-350h-133v528h106z" />
    <glyph glyph-name="s" unicode="s" horiz-adv-x="520" 
d="M31 79l59 80c50 -38 116 -68 167 -68c48 0 74 21 74 54c0 35 -18 51 -105 73c-114 29 -162 72 -162 159c0 102 80 163 200 163c84 0 155 -30 210 -80l-59 -77c-50 36 -99 56 -145 56c-49 0 -73 -17 -73 -47c0 -39 35 -50 115 -73c112 -32 163 -69 163 -157
c0 -112 -83 -175 -211 -175c-97 0 -179 40 -233 92z" />
    <glyph glyph-name="t" unicode="t" horiz-adv-x="355" 
d="M322 428h-95v-296c0 -31 10 -43 34 -43c16 0 47 4 62 9l13 -91c-35 -12 -84 -20 -124 -20c-79 0 -117 43 -117 118v323h-69v77l71 22l14 152h116v-151h95v-100z" />
    <glyph glyph-name="u" unicode="u" horiz-adv-x="585" 
d="M518 0h-109l-11 69c-38 -43 -90 -82 -167 -82c-123 0 -168 73 -168 183v358h133v-326c0 -66 19 -103 79 -103c48 0 84 27 110 57v372h133v-528z" />
    <glyph glyph-name="v" unicode="v" horiz-adv-x="537" 
d="M16 528h139l116 -399l116 399h134l-174 -528h-155z" />
    <glyph glyph-name="w" unicode="w" horiz-adv-x="786" 
d="M632 528h132l-139 -528h-144l-90 345l-87 -345h-144l-138 528h132l84 -377l91 377h125l101 -377z" />
    <glyph glyph-name="x" unicode="x" horiz-adv-x="546" 
d="M15 0l178 265l-173 263h144l109 -177l110 177h141l-171 -263l177 -265h-143l-114 179l-115 -179h-143z" />
    <glyph glyph-name="y" unicode="y" horiz-adv-x="531" 
d="M382 528h133l-178 -507c-53 -152 -77 -224 -216 -224c-29 0 -59 4 -89 12l10 94c16 -3 40 -7 67 -7c38 0 65 10 86 74l5 15l-184 543h139l109 -390z" />
    <glyph glyph-name="y.alt" horiz-adv-x="531" 
d="M382 528h133l-189 -522v-64c0 -101 -29 -142 -147 -142h-73v103h47c38 0 44 11 44 51v48l-181 526h139l110 -374z" />
    <glyph glyph-name="z" unicode="z" horiz-adv-x="476" 
d="M41 0v83l229 344h-224v101h394v-59l-242 -369h241v-100h-398z" />
    <glyph glyph-name="bracketleft" unicode="[" horiz-adv-x="354" 
d="M302 -125h-227v845h227v-99h-102v-648h102v-98z" />
    <glyph glyph-name="bracketright" unicode="]" horiz-adv-x="354" 
d="M279 -125h-227v98h102v648h-102v99h227v-845z" />
    <glyph glyph-name="parenleft" unicode="(" horiz-adv-x="366" 
d="M225 738l91 -47c-90 -128 -132 -234 -132 -389c0 -143 38 -246 138 -381l-78 -53c-112 101 -188 259 -188 432c0 170 62 316 169 438z" />
    <glyph glyph-name="parenright" unicode=")" horiz-adv-x="366" 
d="M50 691l91 47c107 -122 169 -268 169 -438c0 -173 -76 -331 -188 -432l-78 53c100 135 138 238 138 381c0 155 -42 261 -132 389z" />
    <glyph glyph-name="braceleft" unicode="{" horiz-adv-x="402" 
d="M370 627h-37c-52 0 -65 -33 -65 -109v-119c0 -57 -17 -97 -81 -114c75 -15 81 -63 81 -142v-90c0 -60 9 -85 68 -85h34v-93h-46c-141 0 -182 38 -182 158v117c0 60 -15 88 -68 88h-39v93h34c62 0 73 30 73 116v83c0 139 46 190 187 190h41v-93z" />
    <glyph glyph-name="braceright" unicode="}" horiz-adv-x="402" 
d="M69 627h-37v93h41c141 0 187 -51 187 -190v-83c0 -86 11 -116 73 -116h34v-93h-39c-53 0 -68 -28 -68 -88v-117c0 -120 -41 -158 -182 -158h-46v93h34c59 0 68 25 68 85v90c0 79 6 127 81 142c-64 17 -81 57 -81 114v119c0 76 -13 109 -65 109z" />
    <glyph glyph-name="backslash" unicode="\" horiz-adv-x="401" 
d="M143 739l240 -831h-107l-242 831h109z" />
    <glyph glyph-name="slash" unicode="/" horiz-adv-x="403" 
d="M18 -92l240 831h109l-242 -831h-107z" />
    <glyph glyph-name="brokenbar" unicode="&#xa6;" horiz-adv-x="500" 
d="M306 214v-414h-113v414h113zM306 720v-415h-113v415h113z" />
    <glyph glyph-name="bar" unicode="|" horiz-adv-x="500" 
d="M306 720v-920h-113v920h113z" />
    <glyph glyph-name="asciicircum" unicode="^" horiz-adv-x="706" 
d="M392 693l228 -241l-63 -53l-204 206l-205 -207l-64 59l227 236h81z" />
    <glyph glyph-name="underscore" unicode="_" horiz-adv-x="485" 
d="M-3 -218v92h491v-92h-491z" />
    <glyph glyph-name="asciitilde" unicode="~" horiz-adv-x="780" 
d="M675 385l55 -96c-58 -45 -130 -77 -206 -77c-90 0 -180 61 -258 61c-53 0 -101 -24 -158 -59l-53 95c65 45 131 77 206 77c87 0 178 -60 256 -60c56 0 106 25 158 59z" />
    <glyph glyph-name="zero" unicode="0" horiz-adv-x="612" 
d="M181 352c0 -166 39 -253 125 -253c84 0 125 86 125 255c0 164 -38 255 -125 255c-86 0 -125 -91 -125 -257zM50 352c0 243 93 368 258 368c164 0 254 -125 254 -361c0 -249 -93 -372 -259 -372c-165 0 -253 123 -253 365z" />
    <glyph glyph-name="one" unicode="1" horiz-adv-x="484" 
d="M209 100v448c-46 -25 -97 -43 -157 -50l-17 88c71 18 154 66 204 124h100v-610h130v-100h-407v100h147z" />
    <glyph glyph-name="two" unicode="2" horiz-adv-x="531" 
d="M36 0v80l245 296c46 56 65 92 65 138c0 57 -43 94 -101 94c-54 0 -114 -36 -168 -76l-57 81c65 60 151 107 247 107c110 0 209 -64 209 -189c0 -78 -24 -128 -82 -199l-185 -226h277v-106h-450z" />
    <glyph glyph-name="three" unicode="3" horiz-adv-x="541" 
d="M16 84l59 78c45 -37 104 -68 171 -68c70 0 122 35 122 107c0 66 -36 110 -131 111c-18 0 -53 -2 -63 -4v105c89 3 161 46 161 117c0 58 -41 83 -95 83c-55 0 -101 -18 -147 -46l-49 81c63 44 129 72 218 72c116 0 199 -63 199 -172c0 -79 -48 -143 -132 -169v-3
c109 -11 163 -78 163 -176c0 -136 -107 -213 -238 -213c-87 0 -171 29 -238 97z" />
    <glyph glyph-name="four" unicode="4" horiz-adv-x="581" 
d="M154 260h197v332zM351 0v153h-321v96l279 461h167v-450h80v-107h-80v-153h-125z" />
    <glyph glyph-name="five" unicode="5" horiz-adv-x="542" 
d="M54 260l35 450h369l-7 -112h-261l-18 -189c27 24 67 44 130 44c119 0 193 -77 193 -221c0 -163 -110 -245 -247 -245c-72 0 -158 24 -221 76l43 84c61 -33 111 -51 164 -51c75 0 136 41 136 134c0 82 -36 124 -106 124c-49 0 -79 -21 -99 -42l-5 -52h-106z" />
    <glyph glyph-name="six" unicode="6" horiz-adv-x="563" 
d="M47 310c0 264 97 410 270 410c57 0 113 -15 175 -52l-39 -87c-40 23 -81 36 -123 36c-114 0 -156 -116 -162 -244c42 41 96 74 163 74c117 0 191 -84 191 -214c0 -172 -100 -246 -231 -246c-168 0 -244 118 -244 323zM290 89c61 0 109 39 109 133c0 88 -43 121 -103 121
c-53 0 -102 -36 -125 -60c4 -137 42 -194 119 -194z" />
    <glyph glyph-name="seven" unicode="7" horiz-adv-x="476" 
d="M464 654l-256 -654h-130v13l232 586h-292v111h446v-56z" />
    <glyph glyph-name="eight" unicode="8" horiz-adv-x="556" 
d="M157 189c0 -62 41 -100 115 -100c70 0 115 44 115 106c0 73 -75 109 -129 132c-52 -27 -101 -71 -101 -138zM191 539c0 -53 49 -86 99 -108c38 21 82 63 82 113c0 55 -35 81 -92 81s-89 -35 -89 -86zM35 179c0 101 70 163 138 197c-62 26 -110 81 -110 161
c0 108 85 183 219 183c126 0 210 -68 210 -170c0 -77 -54 -134 -111 -166c84 -41 138 -99 138 -188c0 -132 -100 -209 -250 -209c-149 0 -234 71 -234 192z" />
    <glyph glyph-name="nine" unicode="9" horiz-adv-x="558" 
d="M509 408c0 -278 -99 -421 -261 -421c-68 0 -140 20 -190 56l42 86c33 -19 84 -40 135 -40c107 0 142 115 151 234c-43 -40 -96 -65 -160 -65c-123 0 -193 94 -193 220c0 157 101 242 231 242c164 0 245 -119 245 -312zM264 615c-60 0 -110 -40 -110 -129
c0 -88 46 -124 106 -124c53 0 99 31 124 60c0 120 -42 193 -120 193z" />
    <glyph glyph-name="dollar" unicode="$" horiz-adv-x="536" 
d="M214 -88v91c-84 13 -158 56 -200 99l62 79c58 -49 126 -78 185 -78c62 0 106 26 106 80s-22 83 -141 113c-125 31 -187 90 -187 198c0 103 75 169 176 185v84h106v-85c66 -12 128 -45 168 -88l-58 -71c-45 40 -104 64 -159 64c-62 0 -106 -24 -106 -76
c0 -55 40 -80 149 -113c125 -37 184 -90 184 -199c0 -105 -72 -174 -178 -192v-91h-107z" />
    <glyph glyph-name="Euro" unicode="&#x20ac;" horiz-adv-x="616" 
d="M0 386l6 77h69c31 141 132 257 288 257c83 0 168 -30 231 -109l-64 -67c-41 45 -103 75 -164 75c-87 0 -142 -63 -165 -156h289l-6 -77h-294c-1 -13 -1 -20 -1 -33c0 -14 1 -23 2 -36h287l-7 -77h-267c21 -92 84 -143 164 -143c70 0 122 26 170 68l58 -75
c-76 -71 -152 -103 -247 -103c-148 0 -247 109 -273 253h-88l7 77h71c-1 13 -2 21 -2 35c0 13 0 21 1 34h-65z" />
    <glyph glyph-name="cent" unicode="&#xa2;" horiz-adv-x="545" 
d="M479 235l38 -82c-43 -35 -93 -60 -152 -70v-101h-109v99c-124 19 -206 114 -206 271c0 150 82 249 207 269v98h108v-100c98 -19 156 -89 160 -203h-111c-6 70 -46 101 -102 101c-75 0 -122 -52 -122 -161c0 -101 46 -172 134 -172c56 0 102 18 155 51z" />
    <glyph glyph-name="sterling" unicode="&#xa3;" horiz-adv-x="530" 
d="M278 228c0 -49 -26 -92 -53 -123h267v-105h-452v95l54 7c30 32 59 78 59 126c0 27 -14 69 -22 88h-90v86h58c-23 45 -38 80 -38 130c0 110 96 188 221 188c85 0 161 -31 213 -89l-54 -74c-40 34 -85 59 -141 59c-64 0 -105 -36 -105 -94c0 -35 13 -70 37 -120h155v-86
h-129c9 -23 20 -63 20 -88z" />
    <glyph glyph-name="yen" unicode="&#xa5;" horiz-adv-x="592" 
d="M573 710l-184 -329h147v-85h-181v-66h181v-85h-181v-145h-123v145h-180v85h180v66h-180v85h146l-179 329h139l138 -276l143 276h134z" />
    <glyph glyph-name="florin" unicode="&#x192;" horiz-adv-x="455" 
d="M-33 -105h39c36 0 54 13 66 69l76 358h-80v89h99l24 124c22 109 48 175 167 175h79v-98h-56c-48 0 -57 -29 -69 -88l-22 -113h91v-89h-108l-66 -310c-31 -147 -49 -212 -176 -212h-64v95z" />
    <glyph glyph-name="section" unicode="&#xa7;" horiz-adv-x="524" 
d="M63 72l49 68c38 -28 100 -58 156 -58c34 0 70 11 70 47c0 85 -266 54 -266 212c0 61 39 106 104 124c-69 26 -96 71 -96 118c0 88 71 149 182 149c85 0 160 -28 204 -70l-49 -66c-51 35 -91 48 -137 48c-40 0 -79 -16 -79 -53c0 -36 24 -51 92 -74
c133 -46 172 -78 172 -148c0 -65 -49 -100 -99 -115c67 -30 96 -68 96 -121c0 -91 -80 -146 -185 -146c-78 0 -162 31 -214 85zM248 427c-31 -9 -61 -24 -61 -60c0 -37 53 -62 103 -76c29 13 59 29 59 64c0 41 -55 60 -101 72z" />
    <glyph glyph-name="copyright" unicode="&#xa9;" horiz-adv-x="810" 
d="M523 274l34 -47c-40 -40 -91 -63 -149 -63c-116 0 -172 79 -172 197c0 115 61 199 174 199c80 0 143 -41 145 -137h-69c-4 45 -22 75 -78 75c-63 0 -99 -52 -99 -136c0 -93 40 -133 102 -133c48 0 82 21 112 45zM405 663c-171 0 -298 -127 -298 -303
c0 -197 133 -303 298 -303c158 0 301 130 301 303c0 180 -124 303 -301 303zM405 720c216 0 360 -144 360 -356c0 -211 -167 -364 -360 -364s-360 123 -360 360c0 211 160 360 360 360z" />
    <glyph glyph-name="registered" unicode="&#xae;" horiz-adv-x="422" 
d="M145 637h69c46 0 67 -25 67 -58c0 -21 -10 -39 -30 -49l41 -71h-41l-34 62c-5 -1 -12 -1 -17 -1h-20v-61h-35v178zM207 607h-27v-57h25c25 0 38 8 38 27s-11 30 -36 30zM211 691c-81 0 -143 -60 -143 -144c0 -94 59 -145 143 -145c76 0 141 63 141 144
c0 89 -58 145 -141 145zM212 728c106 0 182 -71 182 -182c0 -104 -84 -182 -183 -182c-106 0 -183 65 -183 182c0 108 81 182 184 182z" />
    <glyph glyph-name="trademark" unicode="&#x2122;" horiz-adv-x="636" 
d="M598 455h-56l-17 175l-62 -175h-44l-60 175l-18 -175h-57l29 265h67l63 -181l62 181h63zM114 455v210h-85v55h229v-55h-85v-210h-59z" />
    <glyph glyph-name="ordfeminine" unicode="&#xaa;" horiz-adv-x="483" 
d="M309 408v21c-14 2 -27 4 -53 4c-68 0 -103 -18 -103 -60c0 -31 25 -50 64 -50c51 0 92 40 92 85zM405 517v-253h-82l-8 60c-22 -41 -72 -70 -125 -70c-75 0 -131 39 -131 113c0 64 44 122 179 122c25 0 47 -2 71 -5v32c0 46 -30 69 -80 69c-46 0 -88 -14 -124 -36l-26 62
c43 28 100 48 157 48c106 0 169 -41 169 -142z" />
    <glyph glyph-name="ordmasculine" unicode="&#xba;" horiz-adv-x="497" 
d="M154 455c0 -89 40 -124 95 -124c53 0 95 35 95 124c0 90 -42 127 -95 127c-55 0 -95 -37 -95 -127zM53 457c0 133 86 202 196 202c109 0 195 -69 195 -202c0 -132 -88 -202 -195 -202c-118 0 -196 70 -196 202z" />
    <glyph glyph-name="guillemotleft" unicode="&#xab;" horiz-adv-x="483" 
d="M247 374l-97 -114l97 -112l-55 -50l-159 142v41l159 145zM457 374l-97 -114l97 -112l-55 -50l-159 142v41l159 145z" />
    <glyph glyph-name="guillemotright" unicode="&#xbb;" horiz-adv-x="485" 
d="M123 260l-97 114l55 52l159 -145v-41l-159 -142l-55 50zM335 260l-97 114l55 52l159 -145v-41l-159 -142l-55 50z" />
    <glyph glyph-name="guilsinglleft" unicode="&#x2039;" horiz-adv-x="273" 
d="M247 374l-97 -114l97 -112l-55 -50l-159 142v41l159 145z" />
    <glyph glyph-name="guilsinglright" unicode="&#x203a;" horiz-adv-x="273" 
d="M123 260l-97 114l55 52l159 -145v-41l-159 -142l-55 50z" />
    <glyph glyph-name="quoteleft" unicode="&#x2018;" horiz-adv-x="206" 
d="M176 574c0 -36 -29 -62 -69 -62c-54 0 -76 39 -76 84c0 68 31 125 122 154l19 -45c-47 -20 -65 -46 -66 -81c6 3 12 4 19 4c31 0 51 -24 51 -54z" />
    <glyph glyph-name="quoteright" unicode="&#x2019;" horiz-adv-x="206" 
d="M30 661c0 36 29 62 69 62c54 0 76 -39 76 -84c0 -68 -31 -125 -122 -154l-19 45c47 20 65 46 66 81c-6 -3 -12 -4 -19 -4c-31 0 -51 24 -51 54z" />
    <glyph glyph-name="quotesinglbase" unicode="&#x201a;" horiz-adv-x="206" 
d="M34 42c0 36 29 62 69 62c54 0 76 -39 76 -84c0 -68 -31 -125 -122 -154l-19 45c47 20 65 46 66 81c-6 -3 -12 -4 -19 -4c-31 0 -51 24 -51 54z" />
    <glyph glyph-name="quotedblleft" unicode="&#x201c;" horiz-adv-x="382" 
d="M352 574c0 -36 -29 -62 -69 -62c-54 0 -76 39 -76 84c0 68 31 125 122 154l19 -45c-47 -20 -65 -46 -66 -81c6 3 12 4 19 4c31 0 51 -24 51 -54zM176 574c0 -36 -29 -62 -69 -62c-54 0 -76 39 -76 84c0 68 31 125 122 154l19 -45c-47 -20 -65 -46 -66 -81c6 3 12 4 19 4
c31 0 51 -24 51 -54z" />
    <glyph glyph-name="quotedblright" unicode="&#x201d;" horiz-adv-x="382" 
d="M30 661c0 36 29 62 69 62c54 0 76 -39 76 -84c0 -68 -31 -125 -122 -154l-19 45c47 20 65 46 66 81c-6 -3 -12 -4 -19 -4c-31 0 -51 24 -51 54zM206 661c0 36 29 62 69 62c54 0 76 -39 76 -84c0 -68 -31 -125 -122 -154l-19 45c47 20 65 46 66 81c-6 -3 -12 -4 -19 -4
c-31 0 -51 24 -51 54z" />
    <glyph glyph-name="quotedblbase" unicode="&#x201e;" horiz-adv-x="381" 
d="M34 42c0 36 29 62 69 62c54 0 76 -39 76 -84c0 -68 -31 -125 -122 -154l-19 45c47 20 65 46 66 81c-6 -3 -12 -4 -19 -4c-31 0 -51 24 -51 54zM209 42c0 36 29 62 69 62c54 0 76 -39 76 -84c0 -68 -31 -125 -122 -154l-19 45c47 20 65 46 66 81c-6 -3 -12 -4 -19 -4
c-31 0 -51 24 -51 54z" />
    <glyph glyph-name="dagger" unicode="&#x2020;" horiz-adv-x="502" 
d="M310 -105h-119v518h-153v106h153v201h119v-201h154v-106h-154v-518z" />
    <glyph glyph-name="daggerdbl" unicode="&#x2021;" horiz-adv-x="502" 
d="M311 -105h-120v197h-153v107h153v214h-153v106h153v201h120v-201h152v-106h-152v-214h152v-107h-152v-197z" />
    <glyph glyph-name="bullet" unicode="&#x2022;" horiz-adv-x="500" 
d="M120 312c0 75 60 132 132 132c70 0 132 -57 132 -132c0 -74 -60 -133 -133 -133c-75 0 -131 61 -131 133z" />
    <glyph glyph-name="ellipsis" unicode="&#x2026;" horiz-adv-x="870" 
d="M77 57c0 45 28 74 76 74c47 0 77 -29 77 -71c0 -43 -30 -73 -77 -73c-49 0 -76 30 -76 70zM640 57c0 45 28 74 76 74c47 0 77 -29 77 -71c0 -43 -30 -73 -77 -73c-49 0 -76 30 -76 70zM357 57c0 45 28 74 76 74c47 0 77 -29 77 -71c0 -43 -30 -73 -77 -73
c-49 0 -76 30 -76 70z" />
    <glyph glyph-name="paragraph" unicode="&#xb6;" horiz-adv-x="555" 
d="M482 720v-720h-89v650h-79v-650h-89v351c-115 10 -186 75 -186 182c0 111 85 187 213 187h230z" />
    <glyph glyph-name="periodcentered" unicode="&#xb7;" horiz-adv-x="299" 
d="M78 334c0 46 28 74 76 74c47 0 78 -28 78 -71c0 -42 -31 -72 -78 -72c-49 0 -76 30 -76 69z" />
    <glyph glyph-name="uni00AD" unicode="&#xad;" horiz-adv-x="328" 
d="M30 225v105h268v-105h-268z" />
    <glyph glyph-name="endash" unicode="&#x2013;" horiz-adv-x="500" 
d="M0 226v85h500v-85h-500z" />
    <glyph glyph-name="emdash" unicode="&#x2014;" horiz-adv-x="1000" 
d="M0 225v86h1000v-86h-1000z" />
    <glyph glyph-name="hyphen.case" horiz-adv-x="328" 
d="M30 291v105h268v-105h-268z" />
    <glyph glyph-name="Agrave" unicode="&#xc0;" horiz-adv-x="690" 
d="M275 720h139l259 -720h-148l-53 163h-254l-53 -163h-149zM255 279h179l-90 283zM283 934l178 -107l-45 -77l-187 87z" />
    <glyph glyph-name="Aacute" unicode="&#xc1;" horiz-adv-x="690" 
d="M275 720h139l259 -720h-148l-53 163h-254l-53 -163h-149zM255 279h179l-90 283zM221 827l178 107l54 -97l-187 -87z" />
    <glyph glyph-name="Acircumflex" unicode="&#xc2;" horiz-adv-x="690" 
d="M275 720h139l259 -720h-148l-53 163h-254l-53 -163h-149zM255 279h179l-90 283zM302 923h79l109 -113l-58 -49l-88 66l-87 -66l-60 50z" />
    <glyph glyph-name="Atilde" unicode="&#xc3;" horiz-adv-x="690" 
d="M275 720h139l259 -720h-148l-53 163h-254l-53 -163h-149zM255 279h179l-90 283zM442 900l62 -23c-13 -61 -42 -100 -94 -100c-46 0 -99 33 -126 33c-17 0 -27 -8 -41 -37l-63 24c20 63 50 100 93 100c49 0 94 -34 129 -34c18 0 26 6 40 37z" />
    <glyph glyph-name="Adieresis" unicode="&#xc4;" horiz-adv-x="690" 
d="M275 720h139l259 -720h-148l-53 163h-254l-53 -163h-149zM255 279h179l-90 283zM171 833c0 35 26 62 69 62c47 0 70 -27 70 -62c0 -36 -28 -61 -70 -61c-44 0 -69 24 -69 61zM375 833c0 35 26 62 69 62c47 0 70 -27 70 -62c0 -36 -28 -61 -70 -61c-44 0 -69 24 -69 61z
" />
    <glyph glyph-name="Aring" unicode="&#xc5;" horiz-adv-x="690" 
d="M235 797c0 64 48 105 111 105c60 0 108 -38 108 -101c0 -36 -16 -64 -40 -82l259 -719h-148l-53 163h-254l-53 -163h-149l258 717c-25 17 -39 44 -39 80zM255 279h179l-90 283zM300 799c0 -29 16 -42 46 -42c27 0 43 16 43 44s-15 43 -43 43c-30 0 -46 -17 -46 -45z" />
    <glyph glyph-name="AE" unicode="&#xc6;" horiz-adv-x="1013" 
d="M480 0v183h-215l-93 -183h-156l366 720h577v-122h-341v-173h310v-122h-310v-182h347v-121h-485zM308 296h172v307h-17z" />
    <glyph glyph-name="Ccedilla" unicode="&#xc7;" horiz-adv-x="680" 
d="M279 -210l15 57c17 -6 33 -10 57 -10c26 0 41 11 41 30c0 20 -15 31 -59 31h-18l20 90c-194 15 -285 169 -285 372c0 211 110 372 324 372c150 0 266 -83 274 -253h-139c-5 64 -37 128 -134 128c-111 0 -177 -90 -177 -246c0 -166 71 -249 184 -249c86 0 146 35 201 83
l63 -93c-71 -67 -151 -107 -247 -114l-9 -45c39 -5 87 -16 87 -77c0 -62 -47 -92 -111 -92c-40 0 -74 10 -87 16z" />
    <glyph glyph-name="Egrave" unicode="&#xc8;" horiz-adv-x="606" 
d="M73 0v720h479v-122h-341v-173h310v-122h-310v-182h347v-121h-485zM234 935l178 -107l-45 -77l-187 87z" />
    <glyph glyph-name="Eacute" unicode="&#xc9;" horiz-adv-x="606" 
d="M73 0v720h479v-122h-341v-173h310v-122h-310v-182h347v-121h-485zM197 828l178 107l54 -97l-187 -87z" />
    <glyph glyph-name="Ecircumflex" unicode="&#xca;" horiz-adv-x="606" 
d="M73 0v720h479v-122h-341v-173h310v-122h-310v-182h347v-121h-485zM274 924h79l109 -113l-58 -49l-88 66l-87 -66l-60 50z" />
    <glyph glyph-name="Edieresis" unicode="&#xcb;" horiz-adv-x="606" 
d="M73 0v720h479v-122h-341v-173h310v-122h-310v-182h347v-121h-485zM142 834c0 35 26 62 69 62c47 0 70 -27 70 -62c0 -36 -28 -61 -70 -61c-44 0 -69 24 -69 61zM346 834c0 35 26 62 69 62c47 0 70 -27 70 -62c0 -36 -28 -61 -70 -61c-44 0 -69 24 -69 61z" />
    <glyph glyph-name="Igrave" unicode="&#xcc;" horiz-adv-x="288" 
d="M75 0v720h138v-720h-138zM77 934l178 -107l-45 -77l-187 87z" />
    <glyph glyph-name="Iacute" unicode="&#xcd;" horiz-adv-x="288" 
d="M75 0v720h138v-720h-138zM15 827l178 107l54 -97l-187 -87z" />
    <glyph glyph-name="Icircumflex" unicode="&#xce;" horiz-adv-x="288" 
d="M75 0v720h138v-720h-138zM98 923h79l109 -113l-58 -49l-88 66l-87 -66l-60 50z" />
    <glyph glyph-name="Idieresis" unicode="&#xcf;" horiz-adv-x="288" 
d="M75 0v720h138v-720h-138zM-32 833c0 35 26 62 69 62c47 0 70 -27 70 -62c0 -36 -28 -61 -70 -61c-44 0 -69 24 -69 61zM172 833c0 35 26 62 69 62c47 0 70 -27 70 -62c0 -36 -28 -61 -70 -61c-44 0 -69 24 -69 61z" />
    <glyph glyph-name="Eth" unicode="&#xd0;" horiz-adv-x="719" 
d="M5 306v111h74v303h235c237 0 361 -131 361 -362c0 -249 -127 -358 -381 -358h-215v306h-74zM319 594h-101v-177h162v-111h-162v-180h101c147 0 210 75 210 232c0 154 -63 236 -210 236z" />
    <glyph glyph-name="Ntilde" unicode="&#xd1;" horiz-adv-x="725" 
d="M73 0v720h122l320 -487v487h137v-720h-121l-322 481v-481h-136zM468 900l62 -23c-13 -61 -42 -100 -94 -100c-46 0 -99 33 -126 33c-17 0 -27 -8 -41 -37l-63 24c20 63 50 100 93 100c49 0 94 -34 129 -34c18 0 26 6 40 37z" />
    <glyph glyph-name="Ograve" unicode="&#xd2;" horiz-adv-x="774" 
d="M195 364c0 -161 74 -251 198 -251c126 0 198 89 198 251c0 148 -73 242 -197 242c-126 0 -199 -95 -199 -242zM50 364c0 232 137 368 343 368c207 0 343 -136 343 -368c0 -246 -137 -377 -343 -377s-343 132 -343 377zM328 934l178 -107l-45 -77l-187 87z" />
    <glyph glyph-name="Oacute" unicode="&#xd3;" horiz-adv-x="774" 
d="M195 364c0 -161 74 -251 198 -251c126 0 198 89 198 251c0 148 -73 242 -197 242c-126 0 -199 -95 -199 -242zM50 364c0 232 137 368 343 368c207 0 343 -136 343 -368c0 -246 -137 -377 -343 -377s-343 132 -343 377zM266 827l178 107l54 -97l-187 -87z" />
    <glyph glyph-name="Ocircumflex" unicode="&#xd4;" horiz-adv-x="774" 
d="M195 364c0 -161 74 -251 198 -251c126 0 198 89 198 251c0 148 -73 242 -197 242c-126 0 -199 -95 -199 -242zM50 364c0 232 137 368 343 368c207 0 343 -136 343 -368c0 -246 -137 -377 -343 -377s-343 132 -343 377zM350 923h79l109 -113l-58 -49l-88 66l-87 -66
l-60 50z" />
    <glyph glyph-name="Otilde" unicode="&#xd5;" horiz-adv-x="774" 
d="M195 364c0 -161 74 -251 198 -251c126 0 198 89 198 251c0 148 -73 242 -197 242c-126 0 -199 -95 -199 -242zM50 364c0 232 137 368 343 368c207 0 343 -136 343 -368c0 -246 -137 -377 -343 -377s-343 132 -343 377zM497 900l62 -23c-13 -61 -42 -100 -94 -100
c-46 0 -99 33 -126 33c-17 0 -27 -8 -41 -37l-63 24c20 63 50 100 93 100c49 0 94 -34 129 -34c18 0 26 6 40 37z" />
    <glyph glyph-name="Odieresis" unicode="&#xd6;" horiz-adv-x="774" 
d="M195 364c0 -161 74 -251 198 -251c126 0 198 89 198 251c0 148 -73 242 -197 242c-126 0 -199 -95 -199 -242zM50 364c0 232 137 368 343 368c207 0 343 -136 343 -368c0 -246 -137 -377 -343 -377s-343 132 -343 377zM219 833c0 35 26 62 69 62c47 0 70 -27 70 -62
c0 -36 -28 -61 -70 -61c-44 0 -69 24 -69 61zM423 833c0 35 26 62 69 62c47 0 70 -27 70 -62c0 -36 -28 -61 -70 -61c-44 0 -69 24 -69 61z" />
    <glyph glyph-name="Oslash" unicode="&#xd8;" horiz-adv-x="774" 
d="M50 364c0 232 137 368 343 368c16 0 31 -1 46 -3l18 58h118l-26 -86c116 -53 187 -170 187 -337c0 -246 -137 -377 -343 -377c-21 0 -41 2 -61 4l-21 -71h-117l31 103c-109 55 -175 171 -175 341zM591 364c0 93 -29 165 -82 206l-139 -456c7 -1 15 -1 23 -1
c126 0 198 89 198 251zM195 364c0 -95 25 -165 71 -206l136 448h-8c-126 0 -199 -95 -199 -242z" />
    <glyph glyph-name="Ugrave" unicode="&#xd9;" horiz-adv-x="711" 
d="M70 720h138v-442c0 -114 57 -168 148 -168c103 0 147 56 147 168v442h138v-448c0 -189 -103 -284 -286 -284c-177 0 -285 87 -285 284v448zM289 934l178 -107l-45 -77l-187 87z" />
    <glyph glyph-name="Uacute" unicode="&#xda;" horiz-adv-x="711" 
d="M70 720h138v-442c0 -114 57 -168 148 -168c103 0 147 56 147 168v442h138v-448c0 -189 -103 -284 -286 -284c-177 0 -285 87 -285 284v448zM253 827l178 107l54 -97l-187 -87z" />
    <glyph glyph-name="Ucircumflex" unicode="&#xdb;" horiz-adv-x="711" 
d="M70 720h138v-442c0 -114 57 -168 148 -168c103 0 147 56 147 168v442h138v-448c0 -189 -103 -284 -286 -284c-177 0 -285 87 -285 284v448zM322 923h79l109 -113l-58 -49l-88 66l-87 -66l-60 50z" />
    <glyph glyph-name="Udieresis" unicode="&#xdc;" horiz-adv-x="711" 
d="M70 720h138v-442c0 -114 57 -168 148 -168c103 0 147 56 147 168v442h138v-448c0 -189 -103 -284 -286 -284c-177 0 -285 87 -285 284v448zM193 833c0 35 26 62 69 62c47 0 70 -27 70 -62c0 -36 -28 -61 -70 -61c-44 0 -69 24 -69 61zM397 833c0 35 26 62 69 62
c47 0 70 -27 70 -62c0 -36 -28 -61 -70 -61c-44 0 -69 24 -69 61z" />
    <glyph glyph-name="Yacute" unicode="&#xdd;" horiz-adv-x="639" 
d="M246 0v287l-236 433h151l156 -296l157 296h155l-244 -433v-287h-139zM225 827l178 107l54 -97l-187 -87z" />
    <glyph glyph-name="Thorn" unicode="&#xde;" horiz-adv-x="618" 
d="M60 0v720h139v-104h122c149 0 253 -66 253 -227c0 -166 -105 -242 -263 -242h-112v-147h-139zM310 496h-111v-236h105c90 0 135 40 135 119c0 77 -39 117 -129 117z" />
    <glyph glyph-name="germandbls" unicode="&#xdf;" horiz-adv-x="622" 
d="M93 0v430h-69v78l69 13v19c0 148 115 193 231 193c133 0 212 -60 212 -185c0 -87 -51 -151 -130 -170c109 -19 176 -79 176 -192c0 -127 -85 -198 -198 -198c-42 0 -96 14 -129 40l27 88c19 -12 45 -20 78 -20c50 0 91 33 91 102c0 82 -60 116 -161 125v100
c69 6 119 37 119 114c0 65 -31 99 -93 99c-63 0 -91 -35 -91 -111v-525h-132z" />
    <glyph glyph-name="agrave" unicode="&#xe0;" horiz-adv-x="554" 
d="M358 203v14c-15 3 -36 5 -63 5c-72 0 -121 -19 -121 -78c0 -39 25 -59 72 -59c69 0 112 63 112 118zM491 346v-346h-106l-14 71c-38 -56 -92 -84 -166 -84c-95 0 -163 52 -163 155c0 84 60 167 241 167c30 0 50 -1 75 -4v39c0 63 -33 90 -90 90c-64 0 -105 -20 -156 -50
l-45 80c57 45 136 76 215 76c132 0 209 -57 209 -194zM215 788l156 -143l-59 -66l-166 126z" />
    <glyph glyph-name="aacute" unicode="&#xe1;" horiz-adv-x="554" 
d="M358 203v14c-15 3 -36 5 -63 5c-72 0 -121 -19 -121 -78c0 -39 25 -59 72 -59c69 0 112 63 112 118zM491 346v-346h-106l-14 71c-38 -56 -92 -84 -166 -84c-95 0 -163 52 -163 155c0 84 60 167 241 167c30 0 50 -1 75 -4v39c0 63 -33 90 -90 90c-64 0 -105 -20 -156 -50
l-45 80c57 45 136 76 215 76c132 0 209 -57 209 -194zM168 645l156 143l69 -83l-166 -126z" />
    <glyph glyph-name="acircumflex" unicode="&#xe2;" horiz-adv-x="554" 
d="M358 203v14c-15 3 -36 5 -63 5c-72 0 -121 -19 -121 -78c0 -39 25 -59 72 -59c69 0 112 63 112 118zM491 346v-346h-106l-14 71c-38 -56 -92 -84 -166 -84c-95 0 -163 52 -163 155c0 84 60 167 241 167c30 0 50 -1 75 -4v39c0 63 -33 90 -90 90c-64 0 -105 -20 -156 -50
l-45 80c57 45 136 76 215 76c132 0 209 -57 209 -194zM232 761h79l111 -144l-58 -41l-91 89l-91 -89l-61 40z" />
    <glyph glyph-name="atilde" unicode="&#xe3;" horiz-adv-x="554" 
d="M358 203v14c-15 3 -36 5 -63 5c-72 0 -121 -19 -121 -78c0 -39 25 -59 72 -59c69 0 112 63 112 118zM491 346v-346h-106l-14 71c-38 -56 -92 -84 -166 -84c-95 0 -163 52 -163 155c0 84 60 167 241 167c30 0 50 -1 75 -4v39c0 63 -33 90 -90 90c-64 0 -105 -20 -156 -50
l-45 80c57 45 136 76 215 76c132 0 209 -57 209 -194zM369 717l62 -23c-13 -61 -42 -100 -94 -100c-46 0 -99 33 -126 33c-17 0 -27 -8 -41 -37l-63 24c20 63 50 100 93 100c49 0 94 -34 129 -34c18 0 26 6 40 37z" />
    <glyph glyph-name="adieresis" unicode="&#xe4;" horiz-adv-x="554" 
d="M358 203v14c-15 3 -36 5 -63 5c-72 0 -121 -19 -121 -78c0 -39 25 -59 72 -59c69 0 112 63 112 118zM491 346v-346h-106l-14 71c-38 -56 -92 -84 -166 -84c-95 0 -163 52 -163 155c0 84 60 167 241 167c30 0 50 -1 75 -4v39c0 63 -33 90 -90 90c-64 0 -105 -20 -156 -50
l-45 80c57 45 136 76 215 76c132 0 209 -57 209 -194zM101 656c0 35 26 62 69 62c47 0 70 -27 70 -62c0 -36 -28 -61 -70 -61c-44 0 -69 24 -69 61zM305 656c0 35 26 62 69 62c47 0 70 -27 70 -62c0 -36 -28 -61 -70 -61c-44 0 -69 24 -69 61z" />
    <glyph glyph-name="aring" unicode="&#xe5;" horiz-adv-x="554" 
d="M358 203v14c-15 3 -36 5 -63 5c-72 0 -121 -19 -121 -78c0 -39 25 -59 72 -59c69 0 112 63 112 118zM491 346v-346h-106l-14 71c-38 -56 -92 -84 -166 -84c-95 0 -163 52 -163 155c0 84 60 167 241 167c30 0 50 -1 75 -4v39c0 63 -33 90 -90 90c-64 0 -105 -20 -156 -50
l-45 80c57 45 136 76 215 76c132 0 209 -57 209 -194zM226 668c0 -27 15 -39 42 -39c25 0 40 15 40 41s-14 39 -40 39c-27 0 -42 -15 -42 -41zM166 666c0 59 44 97 102 97c56 0 100 -35 100 -93s-44 -95 -100 -95c-61 0 -102 33 -102 91z" />
    <glyph glyph-name="ae" unicode="&#xe6;" horiz-adv-x="883" 
d="M784 142l43 -87c-62 -46 -134 -68 -214 -68c-84 0 -150 26 -194 77c-48 -51 -117 -77 -189 -77c-115 0 -188 52 -188 158c0 85 56 166 226 166c31 0 58 -2 90 -7v40c0 66 -35 94 -96 94c-59 0 -115 -20 -159 -47l-36 83c56 39 138 66 211 66c74 0 126 -17 162 -79
c37 49 104 79 184 79c136 0 217 -83 217 -254c0 -12 -1 -55 -2 -64h-341c6 -72 41 -125 131 -125c53 0 96 14 155 45zM499 309h215c0 76 -24 131 -99 131c-88 0 -116 -83 -116 -131zM250 86c56 0 102 29 125 57c-9 21 -14 49 -15 74c-16 4 -33 6 -56 6
c-90 0 -129 -26 -129 -73c0 -42 27 -64 75 -64z" />
    <glyph glyph-name="ccedilla" unicode="&#xe7;" horiz-adv-x="554" 
d="M201 -205l15 57c17 -6 33 -10 57 -10c26 0 41 11 41 30c0 20 -15 31 -59 31h-18l19 87c-127 16 -210 114 -210 273c0 169 104 277 260 277c135 0 211 -74 215 -211h-111c-7 70 -46 103 -102 103c-75 0 -122 -56 -122 -164c0 -101 42 -170 130 -170c56 0 98 19 150 48
l49 -84c-52 -43 -118 -69 -195 -74l-8 -40c39 -5 87 -16 87 -77c0 -62 -47 -92 -111 -92c-40 0 -74 10 -87 16z" />
    <glyph glyph-name="egrave" unicode="&#xe8;" horiz-adv-x="549" 
d="M472 142l43 -87c-62 -46 -134 -68 -214 -68c-159 0 -255 96 -255 273c0 170 99 280 256 280c146 0 227 -85 227 -256c0 -12 -1 -56 -2 -65h-341c6 -72 41 -122 131 -122c53 0 96 14 155 45zM187 315h215c0 67 -24 125 -99 125c-88 0 -114 -82 -116 -125zM233 788
l156 -143l-59 -66l-166 126z" />
    <glyph glyph-name="eacute" unicode="&#xe9;" horiz-adv-x="549" 
d="M472 142l43 -87c-62 -46 -134 -68 -214 -68c-159 0 -255 96 -255 273c0 170 99 280 256 280c146 0 227 -85 227 -256c0 -12 -1 -56 -2 -65h-341c6 -72 41 -122 131 -122c53 0 96 14 155 45zM187 315h215c0 67 -24 125 -99 125c-88 0 -114 -82 -116 -125zM176 645l156 143
l69 -83l-166 -126z" />
    <glyph glyph-name="ecircumflex" unicode="&#xea;" horiz-adv-x="549" 
d="M472 142l43 -87c-62 -46 -134 -68 -214 -68c-159 0 -255 96 -255 273c0 170 99 280 256 280c146 0 227 -85 227 -256c0 -12 -1 -56 -2 -65h-341c6 -72 41 -122 131 -122c53 0 96 14 155 45zM187 315h215c0 67 -24 125 -99 125c-88 0 -114 -82 -116 -125zM252 761h79
l111 -144l-58 -41l-91 89l-91 -89l-61 40z" />
    <glyph glyph-name="edieresis" unicode="&#xeb;" horiz-adv-x="549" 
d="M472 142l43 -87c-62 -46 -134 -68 -214 -68c-159 0 -255 96 -255 273c0 170 99 280 256 280c146 0 227 -85 227 -256c0 -12 -1 -56 -2 -65h-341c6 -72 41 -122 131 -122c53 0 96 14 155 45zM187 315h215c0 67 -24 125 -99 125c-88 0 -114 -82 -116 -125zM116 656
c0 35 26 62 69 62c47 0 70 -27 70 -62c0 -36 -28 -61 -70 -61c-44 0 -69 24 -69 61zM320 656c0 35 26 62 69 62c47 0 70 -27 70 -62c0 -36 -28 -61 -70 -61c-44 0 -69 24 -69 61z" />
    <glyph glyph-name="igrave" unicode="&#xec;" horiz-adv-x="258" 
d="M84 788l156 -143l-59 -66l-166 126zM205 528v-528h-132v528h132z" />
    <glyph glyph-name="iacute" unicode="&#xed;" horiz-adv-x="258" 
d="M12 645l156 143l69 -83l-166 -126zM205 528v-528h-132v528h132z" />
    <glyph glyph-name="icircumflex" unicode="&#xee;" horiz-adv-x="258" 
d="M205 528v-528h-132v528h132zM89 761h79l111 -144l-58 -41l-91 89l-91 -89l-61 40z" />
    <glyph glyph-name="idieresis" unicode="&#xef;" horiz-adv-x="258" 
d="M-39 656c0 35 26 62 69 62c47 0 70 -27 70 -62c0 -36 -28 -61 -70 -61c-44 0 -69 24 -69 61zM165 656c0 35 26 62 69 62c47 0 70 -27 70 -62c0 -36 -28 -61 -70 -61c-44 0 -69 24 -69 61zM205 528v-528h-132v528h132z" />
    <glyph glyph-name="eth" unicode="&#xf0;" horiz-adv-x="566" 
d="M259 482l-56 75l54 38c-34 18 -75 32 -122 42l30 86c73 -9 135 -30 186 -61l84 59l56 -74l-66 -47c64 -73 96 -175 96 -300c0 -193 -84 -313 -249 -313c-130 0 -227 78 -227 228c0 134 75 229 198 229c65 0 117 -30 156 -70c-7 67 -29 120 -65 161zM278 90
c78 0 120 64 119 190c-25 29 -68 60 -121 60c-60 0 -106 -42 -106 -127c0 -86 47 -123 108 -123z" />
    <glyph glyph-name="ntilde" unicode="&#xf1;" horiz-adv-x="566" 
d="M67 528h111l11 -70c38 44 97 82 171 82c111 0 167 -71 167 -186v-354h-133v314c0 79 -27 113 -83 113c-53 0 -95 -40 -111 -59v-368h-133v528zM401 717l62 -23c-13 -61 -42 -100 -94 -100c-46 0 -99 33 -126 33c-17 0 -27 -8 -41 -37l-63 24c20 63 50 100 93 100
c49 0 94 -34 129 -34c18 0 26 6 40 37z" />
    <glyph glyph-name="ograve" unicode="&#xf2;" horiz-adv-x="594" 
d="M186 264c0 -118 51 -165 122 -165s123 47 123 165c0 117 -52 166 -123 166s-122 -53 -122 -166zM46 261c0 182 113 279 264 279c150 0 261 -95 261 -276c0 -180 -114 -277 -268 -277c-158 0 -257 97 -257 274zM256 788l156 -143l-59 -66l-166 126z" />
    <glyph glyph-name="oacute" unicode="&#xf3;" horiz-adv-x="594" 
d="M186 264c0 -118 51 -165 122 -165s123 47 123 165c0 117 -52 166 -123 166s-122 -53 -122 -166zM46 261c0 182 113 279 264 279c150 0 261 -95 261 -276c0 -180 -114 -277 -268 -277c-158 0 -257 97 -257 274zM188 645l156 143l69 -83l-166 -126z" />
    <glyph glyph-name="ocircumflex" unicode="&#xf4;" horiz-adv-x="594" 
d="M186 264c0 -118 51 -165 122 -165s123 47 123 165c0 117 -52 166 -123 166s-122 -53 -122 -166zM46 261c0 182 113 279 264 279c150 0 261 -95 261 -276c0 -180 -114 -277 -268 -277c-158 0 -257 97 -257 274zM270 761h79l111 -144l-58 -41l-91 89l-91 -89l-61 40z" />
    <glyph glyph-name="otilde" unicode="&#xf5;" horiz-adv-x="594" 
d="M186 264c0 -118 51 -165 122 -165s123 47 123 165c0 117 -52 166 -123 166s-122 -53 -122 -166zM46 261c0 182 113 279 264 279c150 0 261 -95 261 -276c0 -180 -114 -277 -268 -277c-158 0 -257 97 -257 274zM408 717l62 -23c-13 -61 -42 -100 -94 -100
c-46 0 -99 33 -126 33c-17 0 -27 -8 -41 -37l-63 24c20 63 50 100 93 100c49 0 94 -34 129 -34c18 0 26 6 40 37z" />
    <glyph glyph-name="odieresis" unicode="&#xf6;" horiz-adv-x="594" 
d="M186 264c0 -118 51 -165 122 -165s123 47 123 165c0 117 -52 166 -123 166s-122 -53 -122 -166zM46 261c0 182 113 279 264 279c150 0 261 -95 261 -276c0 -180 -114 -277 -268 -277c-158 0 -257 97 -257 274zM134 656c0 35 26 62 69 62c47 0 70 -27 70 -62
c0 -36 -28 -61 -70 -61c-44 0 -69 24 -69 61zM338 656c0 35 26 62 69 62c47 0 70 -27 70 -62c0 -36 -28 -61 -70 -61c-44 0 -69 24 -69 61z" />
    <glyph glyph-name="oslash" unicode="&#xf8;" horiz-adv-x="597" 
d="M46 261c0 182 113 279 264 279c12 0 24 -1 36 -2l17 55h99l-25 -81c81 -40 134 -124 134 -248c0 -180 -114 -277 -268 -277c-10 0 -21 0 -30 1l-20 -64h-98l27 86c-86 39 -136 125 -136 251zM186 264c0 -60 13 -101 35 -128l91 294h-4c-71 0 -122 -53 -122 -166zM431 264
c0 57 -12 97 -33 124l-91 -289h1c71 0 123 47 123 165z" />
    <glyph glyph-name="ugrave" unicode="&#xf9;" horiz-adv-x="585" 
d="M518 0h-109l-11 69c-38 -43 -90 -82 -167 -82c-123 0 -168 73 -168 183v358h133v-326c0 -66 19 -103 79 -103c48 0 84 27 110 57v372h133v-528zM239 788l156 -143l-59 -66l-166 126z" />
    <glyph glyph-name="uacute" unicode="&#xfa;" horiz-adv-x="585" 
d="M518 0h-109l-11 69c-38 -43 -90 -82 -167 -82c-123 0 -168 73 -168 183v358h133v-326c0 -66 19 -103 79 -103c48 0 84 27 110 57v372h133v-528zM192 645l156 143l69 -83l-166 -126z" />
    <glyph glyph-name="ucircumflex" unicode="&#xfb;" horiz-adv-x="585" 
d="M518 0h-109l-11 69c-38 -43 -90 -82 -167 -82c-123 0 -168 73 -168 183v358h133v-326c0 -66 19 -103 79 -103c48 0 84 27 110 57v372h133v-528zM256 761h79l111 -144l-58 -41l-91 89l-91 -89l-61 40z" />
    <glyph glyph-name="udieresis" unicode="&#xfc;" horiz-adv-x="585" 
d="M518 0h-109l-11 69c-38 -43 -90 -82 -167 -82c-123 0 -168 73 -168 183v358h133v-326c0 -66 19 -103 79 -103c48 0 84 27 110 57v372h133v-528zM119 656c0 35 26 62 69 62c47 0 70 -27 70 -62c0 -36 -28 -61 -70 -61c-44 0 -69 24 -69 61zM323 656c0 35 26 62 69 62
c47 0 70 -27 70 -62c0 -36 -28 -61 -70 -61c-44 0 -69 24 -69 61z" />
    <glyph glyph-name="yacute" unicode="&#xfd;" horiz-adv-x="531" 
d="M382 528h133l-178 -507c-53 -152 -77 -224 -216 -224c-29 0 -59 4 -89 12l10 94c16 -3 40 -7 67 -7c38 0 65 10 86 74l5 15l-184 543h139l109 -390zM169 645l156 143l69 -83l-166 -126z" />
    <glyph glyph-name="thorn" unicode="&#xfe;" horiz-adv-x="601" 
d="M200 361v-202c20 -27 59 -60 112 -60c76 0 121 48 121 162c0 115 -40 169 -115 169c-52 0 -90 -37 -118 -69zM200 -200h-133v920h130v-262c41 48 100 82 172 82c123 0 203 -94 203 -274c0 -172 -72 -278 -219 -278c-80 0 -131 41 -153 65v-253z" />
    <glyph glyph-name="ydieresis" unicode="&#xff;" horiz-adv-x="531" 
d="M382 528h133l-178 -507c-53 -152 -77 -224 -216 -224c-29 0 -59 4 -89 12l10 94c16 -3 40 -7 67 -7c38 0 65 10 86 74l5 15l-184 543h139l109 -390zM96 656c0 35 26 62 69 62c47 0 70 -27 70 -62c0 -36 -28 -61 -70 -61c-44 0 -69 24 -69 61zM300 656c0 35 26 62 69 62
c47 0 70 -27 70 -62c0 -36 -28 -61 -70 -61c-44 0 -69 24 -69 61z" />
    <glyph glyph-name="Amacron" unicode="&#x100;" horiz-adv-x="690" 
d="M275 720h139l259 -720h-148l-53 163h-254l-53 -163h-149zM255 279h179l-90 283zM201 784v89h283v-89h-283z" />
    <glyph glyph-name="amacron" unicode="&#x101;" horiz-adv-x="554" 
d="M358 203v14c-15 3 -36 5 -63 5c-72 0 -121 -19 -121 -78c0 -39 25 -59 72 -59c69 0 112 63 112 118zM491 346v-346h-106l-14 71c-38 -56 -92 -84 -166 -84c-95 0 -163 52 -163 155c0 84 60 167 241 167c30 0 50 -1 75 -4v39c0 63 -33 90 -90 90c-64 0 -105 -20 -156 -50
l-45 80c57 45 136 76 215 76c132 0 209 -57 209 -194zM127 608v89h283v-89h-283z" />
    <glyph glyph-name="Abreve" unicode="&#x102;" horiz-adv-x="690" 
d="M275 720h139l259 -720h-148l-53 163h-254l-53 -163h-149zM255 279h179l-90 283zM342 843c57 0 72 28 77 63l80 -13c-9 -84 -57 -127 -157 -127s-146 38 -159 127l83 14c7 -40 24 -64 76 -64z" />
    <glyph glyph-name="abreve" unicode="&#x103;" horiz-adv-x="554" 
d="M358 203v14c-15 3 -36 5 -63 5c-72 0 -121 -19 -121 -78c0 -39 25 -59 72 -59c69 0 112 63 112 118zM491 346v-346h-106l-14 71c-38 -56 -92 -84 -166 -84c-95 0 -163 52 -163 155c0 84 60 167 241 167c30 0 50 -1 75 -4v39c0 63 -33 90 -90 90c-64 0 -105 -20 -156 -50
l-45 80c57 45 136 76 215 76c132 0 209 -57 209 -194zM278 668c57 0 72 35 77 70l80 -13c-8 -88 -57 -134 -157 -134s-146 42 -159 134l81 14c11 -44 26 -71 78 -71z" />
    <glyph glyph-name="Aogonek" unicode="&#x104;" horiz-adv-x="690" 
d="M275 720h139l259 -720c-58 -39 -96 -84 -96 -117c0 -21 9 -32 29 -32c19 0 34 3 55 12l19 -64c-24 -14 -66 -30 -110 -30c-69 0 -97 31 -97 79c0 57 34 106 87 152h-35l-53 163h-254l-53 -163h-149zM255 279h179l-90 283z" />
    <glyph glyph-name="aogonek" unicode="&#x105;" horiz-adv-x="554" 
d="M491 346v-346c-43 -39 -81 -84 -81 -117c0 -21 9 -32 29 -32c19 0 34 3 55 12l19 -64c-24 -14 -66 -30 -110 -30c-69 0 -97 31 -97 79c0 57 34 106 79 152l-14 71c-38 -56 -92 -84 -166 -84c-95 0 -163 52 -163 155c0 84 60 167 241 167c30 0 50 -1 75 -4v39
c0 63 -33 90 -90 90c-64 0 -105 -20 -156 -50l-45 80c57 45 136 76 215 76c132 0 209 -57 209 -194zM358 203v14c-15 3 -36 5 -63 5c-72 0 -121 -19 -121 -78c0 -39 25 -59 72 -59c69 0 112 63 112 118z" />
    <glyph glyph-name="Cacute" unicode="&#x106;" horiz-adv-x="680" 
d="M577 195l74 -91c-85 -82 -173 -117 -283 -117c-216 0 -318 159 -318 373c0 211 110 372 324 372c150 0 266 -83 274 -253h-139c-5 64 -37 128 -134 128c-111 0 -177 -90 -177 -246c0 -166 71 -249 184 -249c86 0 144 39 195 83zM247 827l178 107l54 -97l-187 -87z" />
    <glyph glyph-name="cacute" unicode="&#x107;" horiz-adv-x="554" 
d="M466 146l49 -84c-57 -47 -131 -75 -218 -75c-149 0 -251 101 -251 276c0 169 104 277 260 277c135 0 211 -74 215 -211h-111c-7 70 -46 103 -102 103c-75 0 -122 -56 -122 -164c0 -101 42 -170 130 -170c56 0 98 19 150 48zM188 645l156 143l69 -83l-166 -126z" />
    <glyph glyph-name="Ccircumflex" unicode="&#x108;" horiz-adv-x="680" 
d="M577 195l74 -91c-85 -82 -173 -117 -283 -117c-216 0 -318 159 -318 373c0 211 110 372 324 372c150 0 266 -83 274 -253h-139c-5 64 -37 128 -134 128c-111 0 -177 -90 -177 -246c0 -166 71 -249 184 -249c86 0 144 39 195 83zM331 923h79l109 -113l-58 -49l-88 66
l-87 -66l-60 50z" />
    <glyph glyph-name="ccircumflex" unicode="&#x109;" horiz-adv-x="554" 
d="M466 146l49 -84c-57 -47 -131 -75 -218 -75c-149 0 -251 101 -251 276c0 169 104 277 260 277c135 0 211 -74 215 -211h-111c-7 70 -46 103 -102 103c-75 0 -122 -56 -122 -164c0 -101 42 -170 130 -170c56 0 98 19 150 48zM260 761h79l111 -144l-58 -41l-91 89l-91 -89
l-61 40z" />
    <glyph glyph-name="Cdotaccent" unicode="&#x10a;" horiz-adv-x="680" 
d="M577 195l74 -91c-85 -82 -173 -117 -283 -117c-216 0 -318 159 -318 373c0 211 110 372 324 372c150 0 266 -83 274 -253h-139c-5 64 -37 128 -134 128c-111 0 -177 -90 -177 -246c0 -166 71 -249 184 -249c86 0 144 39 195 83zM285 837c0 44 35 68 80 68
c46 0 79 -24 79 -68c0 -43 -33 -67 -79 -67c-44 0 -80 24 -80 67z" />
    <glyph glyph-name="cdotaccent" unicode="&#x10b;" horiz-adv-x="554" 
d="M466 146l49 -84c-57 -47 -131 -75 -218 -75c-149 0 -251 101 -251 276c0 169 104 277 260 277c135 0 211 -74 215 -211h-111c-7 70 -46 103 -102 103c-75 0 -122 -56 -122 -164c0 -101 42 -170 130 -170c56 0 98 19 150 48zM222 663c0 44 35 68 80 68c46 0 79 -24 79 -68
c0 -42 -33 -66 -79 -66c-44 0 -80 24 -80 66z" />
    <glyph glyph-name="Ccaron" unicode="&#x10c;" horiz-adv-x="680" 
d="M577 195l74 -91c-85 -82 -173 -117 -283 -117c-216 0 -318 159 -318 373c0 211 110 372 324 372c150 0 266 -83 274 -253h-139c-5 64 -37 128 -134 128c-111 0 -177 -90 -177 -246c0 -166 71 -249 184 -249c86 0 144 39 195 83zM407 761h-79l-105 112l60 50l87 -66l88 66
l58 -49z" />
    <glyph glyph-name="ccaron" unicode="&#x10d;" horiz-adv-x="554" 
d="M466 146l49 -84c-57 -47 -131 -75 -218 -75c-149 0 -251 101 -251 276c0 169 104 277 260 277c135 0 211 -74 215 -211h-111c-7 70 -46 103 -102 103c-75 0 -122 -56 -122 -164c0 -101 42 -170 130 -170c56 0 98 19 150 48zM339 581h-79l-108 142l59 44l90 -90l91 89
l58 -41z" />
    <glyph glyph-name="Dcaron" unicode="&#x10e;" horiz-adv-x="723" 
d="M312 598h-101v-477h101c147 0 212 80 212 237c0 154 -65 240 -212 240zM73 720h237c236 0 358 -131 358 -352c0 -259 -125 -368 -379 -368h-216v720zM339 761h-79l-105 112l60 50l87 -66l88 66l58 -49z" />
    <glyph glyph-name="dcaron" unicode="&#x10f;" horiz-adv-x="673" 
d="M437 0l-7 68c-27 -37 -80 -81 -164 -81c-147 0 -217 106 -217 275c0 179 94 278 222 278c67 0 116 -31 152 -70v250h132v-720h-118zM422 158v209c-20 24 -60 60 -116 60c-72 0 -117 -53 -117 -163c0 -89 29 -165 120 -165c54 0 92 34 113 59zM594 522l31 198h121
l-54 -198h-98z" />
    <glyph glyph-name="Dcroat" unicode="&#x110;" horiz-adv-x="719" 
d="M5 306v111h74v303h235c237 0 361 -131 361 -362c0 -249 -127 -358 -381 -358h-215v306h-74zM319 594h-101v-177h162v-111h-162v-180h101c147 0 210 75 210 232c0 154 -63 236 -210 236z" />
    <glyph glyph-name="dcroat" unicode="&#x111;" horiz-adv-x="596" 
d="M261 558v93h162v69h132v-69h56v-93h-56v-558h-118l-7 68c-27 -36 -80 -81 -164 -81c-142 0 -217 97 -217 262c0 173 94 260 214 260c69 0 124 -31 160 -70v119h-162zM422 157v177c-20 24 -60 62 -122 62c-66 0 -111 -42 -111 -145c0 -80 29 -152 120 -152
c54 0 92 33 113 58z" />
    <glyph glyph-name="Emacron" unicode="&#x112;" horiz-adv-x="606" 
d="M73 0v720h479v-122h-341v-173h310v-122h-310v-182h347v-121h-485zM175 785v89h283v-89h-283z" />
    <glyph glyph-name="emacron" unicode="&#x113;" horiz-adv-x="551" 
d="M472 142l43 -87c-62 -46 -134 -68 -214 -68c-159 0 -255 96 -255 273c0 170 99 280 256 280c146 0 227 -85 227 -256c0 -12 -1 -56 -2 -65h-341c6 -72 41 -122 131 -122c53 0 96 14 155 45zM187 315h215c0 67 -24 125 -99 125c-88 0 -114 -82 -116 -125zM156 608v89h283
v-89h-283z" />
    <glyph glyph-name="Ebreve" unicode="&#x114;" horiz-adv-x="606" 
d="M73 0v720h479v-122h-341v-173h310v-122h-310v-182h347v-121h-485zM315 844c57 0 72 28 77 63l80 -13c-9 -84 -57 -127 -157 -127s-146 38 -159 127l83 14c7 -40 24 -64 76 -64z" />
    <glyph glyph-name="ebreve" unicode="&#x115;" horiz-adv-x="549" 
d="M472 142l43 -87c-62 -46 -134 -68 -214 -68c-159 0 -255 96 -255 273c0 170 99 280 256 280c146 0 227 -85 227 -256c0 -12 -1 -56 -2 -65h-341c6 -72 41 -122 131 -122c53 0 96 14 155 45zM187 315h215c0 67 -24 125 -99 125c-88 0 -114 -82 -116 -125zM304 668
c57 0 72 35 77 70l80 -13c-8 -88 -57 -134 -157 -134s-146 42 -159 134l81 14c11 -44 26 -71 78 -71z" />
    <glyph glyph-name="Edotaccent" unicode="&#x116;" horiz-adv-x="606" 
d="M73 0v720h479v-122h-341v-173h310v-122h-310v-182h347v-121h-485zM242 838c0 44 35 68 80 68c46 0 79 -24 79 -68c0 -43 -33 -67 -79 -67c-44 0 -80 24 -80 67z" />
    <glyph glyph-name="edotaccent" unicode="&#x117;" horiz-adv-x="549" 
d="M472 142l43 -87c-62 -46 -134 -68 -214 -68c-159 0 -255 96 -255 273c0 170 99 280 256 280c146 0 227 -85 227 -256c0 -12 -1 -56 -2 -65h-341c6 -72 41 -122 131 -122c53 0 96 14 155 45zM187 315h215c0 67 -24 125 -99 125c-88 0 -114 -82 -116 -125zM228 663
c0 44 35 68 80 68c46 0 79 -24 79 -68c0 -42 -33 -66 -79 -66c-44 0 -80 24 -80 66z" />
    <glyph glyph-name="Eogonek" unicode="&#x118;" horiz-adv-x="606" 
d="M73 0v720h479v-122h-341v-175h310v-115h-310v-187h347v-121h-29c-41 -39 -79 -84 -79 -117c0 -21 9 -32 29 -32c19 0 34 3 55 12l19 -64c-24 -14 -66 -30 -110 -30c-69 0 -97 31 -97 79c0 57 34 106 87 152h-360z" />
    <glyph glyph-name="eogonek" unicode="&#x119;" horiz-adv-x="549" 
d="M472 142l43 -87c-29 -22 -60 -36 -90 -58c-46 -33 -82 -81 -82 -114c0 -21 9 -32 29 -32c19 0 34 3 55 12l19 -64c-24 -14 -66 -30 -110 -30c-69 0 -97 31 -97 79c0 52 29 97 73 139h-11c-159 0 -255 96 -255 273c0 170 99 280 256 280c146 0 227 -83 227 -254
c0 -12 -1 -58 -2 -67h-341c6 -72 41 -122 131 -122c53 0 96 14 155 45zM187 315h215c-1 69 -24 125 -99 125c-88 0 -114 -82 -116 -125z" />
    <glyph glyph-name="Ecaron" unicode="&#x11a;" horiz-adv-x="606" 
d="M73 0v720h479v-122h-341v-173h310v-122h-310v-182h347v-121h-485zM360 762h-79l-105 112l60 50l87 -66l88 66l58 -49z" />
    <glyph glyph-name="ecaron" unicode="&#x11b;" horiz-adv-x="549" 
d="M472 142l43 -87c-62 -46 -134 -68 -214 -68c-159 0 -255 96 -255 273c0 170 99 280 256 280c146 0 227 -85 227 -256c0 -12 -1 -56 -2 -65h-341c6 -72 41 -122 131 -122c53 0 96 14 155 45zM187 315h215c0 67 -24 125 -99 125c-88 0 -114 -82 -116 -125zM343 581h-79
l-108 142l59 44l90 -90l91 89l58 -41z" />
    <glyph glyph-name="Gcircumflex" unicode="&#x11c;" horiz-adv-x="730" 
d="M408 269v115h260v-286c-83 -91 -196 -111 -278 -111c-255 0 -340 171 -340 373c0 218 107 372 332 372c200 0 273 -106 282 -235h-143c-4 61 -42 110 -139 110c-123 0 -187 -99 -187 -245c0 -158 60 -252 203 -252c52 0 102 11 138 41v118h-128zM342 923h79l109 -113
l-58 -49l-88 66l-87 -66l-60 50z" />
    <glyph glyph-name="gcircumflex" unicode="&#x11d;" horiz-adv-x="625" 
d="M555 528v-499c0 -181 -79 -239 -248 -239c-75 0 -146 16 -191 33l21 97c48 -13 98 -26 160 -26c97 0 130 38 130 136v49c-37 -46 -94 -76 -162 -76c-139 0 -216 92 -216 258c0 165 75 279 225 279c76 0 131 -44 162 -80l9 68h110zM422 170v195c-18 24 -63 62 -117 62
c-75 0 -116 -54 -116 -158c0 -99 36 -156 118 -156c56 0 92 32 115 57zM268 761h79l111 -144l-58 -41l-91 89l-91 -89l-61 40z" />
    <glyph glyph-name="Gbreve" unicode="&#x11e;" horiz-adv-x="730" 
d="M408 269v115h260v-286c-83 -91 -196 -111 -278 -111c-255 0 -340 171 -340 373c0 218 107 372 332 372c200 0 273 -106 282 -235h-143c-4 61 -42 110 -139 110c-123 0 -187 -99 -187 -245c0 -158 60 -252 203 -252c52 0 102 11 138 41v118h-128zM379 843
c57 0 72 28 77 63l80 -13c-9 -84 -57 -127 -157 -127s-146 38 -159 127l83 14c7 -40 24 -64 76 -64z" />
    <glyph glyph-name="gbreve" unicode="&#x11f;" horiz-adv-x="625" 
d="M555 528v-499c0 -181 -79 -239 -248 -239c-75 0 -146 16 -191 33l21 97c48 -13 98 -26 160 -26c97 0 130 38 130 136v49c-37 -46 -94 -76 -162 -76c-139 0 -216 92 -216 258c0 165 75 279 225 279c76 0 131 -44 162 -80l9 68h110zM422 170v195c-18 24 -63 62 -117 62
c-75 0 -116 -54 -116 -158c0 -99 36 -156 118 -156c56 0 92 32 115 57zM298 668c57 0 72 35 77 70l80 -13c-8 -88 -57 -134 -157 -134s-146 42 -159 134l81 14c11 -44 26 -71 78 -71z" />
    <glyph glyph-name="Gdotaccent" unicode="&#x120;" horiz-adv-x="730" 
d="M408 269v115h260v-286c-83 -91 -196 -111 -278 -111c-255 0 -340 171 -340 373c0 218 107 372 332 372c200 0 273 -106 282 -235h-143c-4 61 -42 110 -139 110c-123 0 -187 -99 -187 -245c0 -158 60 -252 203 -252c52 0 102 11 138 41v118h-128zM307 837
c0 44 35 68 80 68c46 0 79 -24 79 -68c0 -43 -33 -67 -79 -67c-44 0 -80 24 -80 67z" />
    <glyph glyph-name="gdotaccent" unicode="&#x121;" horiz-adv-x="625" 
d="M555 528v-499c0 -181 -79 -239 -248 -239c-75 0 -146 16 -191 33l21 97c48 -13 98 -26 160 -26c97 0 130 38 130 136v49c-37 -46 -94 -76 -162 -76c-139 0 -216 92 -216 258c0 165 75 279 225 279c76 0 131 -44 162 -80l9 68h110zM422 170v195c-18 24 -63 62 -117 62
c-75 0 -116 -54 -116 -158c0 -99 36 -156 118 -156c56 0 92 32 115 57zM218 663c0 44 35 68 80 68c46 0 79 -24 79 -68c0 -42 -33 -66 -79 -66c-44 0 -80 24 -80 66z" />
    <glyph glyph-name="Gcommaaccent" unicode="&#x122;" horiz-adv-x="730" 
d="M408 269v115h260v-286c-83 -91 -196 -111 -278 -111c-255 0 -340 171 -340 373c0 218 107 372 332 372c200 0 273 -106 282 -235h-143c-4 61 -42 110 -139 110c-123 0 -187 -99 -187 -245c0 -158 60 -252 203 -252c52 0 102 11 138 41v118h-128zM292 -233l40 176l110 -27
l-62 -173z" />
    <glyph glyph-name="gcommaaccent" unicode="&#x123;" horiz-adv-x="625" 
d="M555 528v-499c0 -181 -79 -239 -248 -239c-75 0 -146 16 -191 33l21 97c48 -13 98 -26 160 -26c97 0 130 38 130 136v49c-37 -46 -94 -76 -162 -76c-139 0 -216 92 -216 258c0 165 75 279 225 279c76 0 131 -44 162 -80l9 68h110zM422 170v195c-18 24 -63 62 -117 62
c-75 0 -116 -54 -116 -158c0 -99 36 -156 118 -156c56 0 92 32 115 57zM385 757l-40 -176l-110 27l62 173z" />
    <glyph glyph-name="Hcircumflex" unicode="&#x124;" horiz-adv-x="707" 
d="M73 0v720h138v-293h297v293h138v-720h-138v302h-297v-302h-138zM325 923h79l109 -113l-58 -49l-88 66l-87 -66l-60 50z" />
    <glyph glyph-name="hcircumflex" unicode="&#x125;" horiz-adv-x="590" 
d="M67 720h133v-256c38 42 96 76 163 76c106 0 164 -69 164 -187v-353h-133v320c0 61 -14 107 -84 107c-46 0 -86 -32 -110 -59v-368h-133v720zM90 911h79l109 -113l-58 -49l-88 66l-87 -66l-60 50z" />
    <glyph glyph-name="Hbar" unicode="&#x126;" horiz-adv-x="719" 
d="M14 514v103h59v103h138v-103h297v103h138v-103h63v-103h-63v-514h-138v302h-297v-302h-138v514h-59zM211 427h297v87h-297v-87z" />
    <glyph glyph-name="hbar" unicode="&#x127;" horiz-adv-x="590" 
d="M11 558v93h56v69h133v-69h161v-93h-161v-134c38 42 96 76 163 76c106 0 164 -69 164 -187v-313h-133v280c0 61 -14 107 -84 107c-46 0 -86 -32 -110 -59v-328h-133v558h-56z" />
    <glyph glyph-name="Itilde" unicode="&#x128;" horiz-adv-x="288" 
d="M75 0v720h138v-720h-138zM240 900l62 -23c-13 -61 -42 -100 -94 -100c-46 0 -99 33 -126 33c-17 0 -27 -8 -41 -37l-63 24c20 63 50 100 93 100c49 0 94 -34 129 -34c18 0 26 6 40 37z" />
    <glyph glyph-name="itilde" unicode="&#x129;" horiz-adv-x="258" 
d="M227 717l62 -23c-13 -61 -42 -100 -94 -100c-46 0 -99 33 -126 33c-17 0 -27 -8 -41 -37l-63 24c20 63 50 100 93 100c49 0 94 -34 129 -34c18 0 26 6 40 37zM205 528v-528h-132v528h132z" />
    <glyph glyph-name="Imacron" unicode="&#x12a;" horiz-adv-x="288" 
d="M75 0v720h138v-720h-138zM-5 784v89h283v-89h-283z" />
    <glyph glyph-name="imacron" unicode="&#x12b;" horiz-adv-x="258" 
d="M-16 608v89h283v-89h-283zM205 528v-528h-132v528h132z" />
    <glyph glyph-name="Ibreve" unicode="&#x12c;" horiz-adv-x="288" 
d="M75 0v720h138v-720h-138zM148 843c57 0 72 28 77 63l80 -13c-9 -84 -57 -127 -157 -127s-146 38 -159 127l83 14c7 -40 24 -64 76 -64z" />
    <glyph glyph-name="ibreve" unicode="&#x12d;" horiz-adv-x="258" 
d="M131 668c57 0 72 35 77 70l80 -13c-8 -88 -57 -134 -157 -134s-146 42 -159 134l81 14c11 -44 26 -71 78 -71zM205 528v-528h-132v528h132z" />
    <glyph glyph-name="Iogonek" unicode="&#x12e;" horiz-adv-x="288" 
d="M75 0v720h138v-720c-58 -39 -96 -84 -96 -117c0 -21 9 -32 29 -32c19 0 34 3 55 12l19 -64c-24 -14 -66 -30 -110 -30c-69 0 -97 31 -97 79c0 57 37 109 94 152h-32z" />
    <glyph glyph-name="iogonek" unicode="&#x12f;" horiz-adv-x="278" 
d="M205 528v-528c-44 -36 -90 -84 -90 -117c0 -21 9 -32 29 -32c19 0 34 3 55 12l19 -64c-24 -14 -66 -30 -110 -30c-69 0 -97 31 -97 79c0 57 36 106 89 152h-27v528h132zM62 663c0 45 35 69 79 69c47 0 80 -24 80 -69c0 -43 -33 -67 -80 -67c-44 0 -79 24 -79 67z" />
    <glyph glyph-name="Idotaccent" unicode="&#x130;" horiz-adv-x="288" 
d="M75 0v720h138v-720h-138zM69 837c0 44 35 68 80 68c46 0 79 -24 79 -68c0 -43 -33 -67 -79 -67c-44 0 -80 24 -80 67z" />
    <glyph glyph-name="dotlessi" unicode="&#x131;" horiz-adv-x="278" 
d="M205 528v-528h-132v528h132z" />
    <glyph glyph-name="IJ" unicode="&#x132;" horiz-adv-x="706" 
d="M73 0v720h138v-720h-138zM636 720v-535c0 -135 -60 -198 -177 -198c-56 0 -117 11 -155 27l17 108c28 -10 60 -16 93 -16c62 0 83 23 83 100v514h139z" />
    <glyph glyph-name="ij" unicode="&#x133;" horiz-adv-x="542" 
d="M62 663c0 45 35 69 79 69c47 0 80 -24 80 -69c0 -43 -33 -67 -80 -67c-44 0 -79 24 -79 67zM205 528v-528h-132v528h132zM469 528v-578c0 -98 -39 -154 -144 -154c-32 0 -66 6 -91 14l10 93c13 -3 33 -6 47 -6c32 0 46 11 46 60v571h132zM324 663c0 45 35 69 80 69
c47 0 80 -24 80 -69c0 -43 -33 -67 -80 -67c-44 0 -80 24 -80 67z" />
    <glyph glyph-name="Jcircumflex" unicode="&#x134;" horiz-adv-x="427" 
d="M357 720v-535c0 -135 -60 -198 -177 -198c-56 0 -117 11 -155 27l17 108c28 -10 60 -16 93 -16c62 0 83 23 83 100v514h139zM240 923h79l109 -113l-58 -49l-88 66l-87 -66l-60 50z" />
    <glyph glyph-name="jcircumflex" unicode="&#x135;" horiz-adv-x="261" 
d="M196 528v-578c0 -98 -39 -154 -144 -154c-32 0 -62 4 -87 12l8 94c13 -3 29 -5 43 -5c32 0 48 11 48 60v571h132zM87 761h79l111 -144l-58 -41l-91 89l-91 -89l-61 40z" />
    <glyph glyph-name="Kcommaaccent" unicode="&#x136;" horiz-adv-x="675" 
d="M73 0v720h138v-297h101l165 297h154l-200 -351l227 -369h-160l-188 309h-99v-309h-138zM247 -233l40 176l110 -27l-62 -173z" />
    <glyph glyph-name="kcommaaccent" unicode="&#x137;" horiz-adv-x="547" 
d="M200 720v-374h65l116 182h146l-157 -234l181 -294h-155l-140 236h-56v-236h-133v720h133zM195 -233l40 176l110 -27l-62 -173z" />
    <glyph glyph-name="kgreenlandic" unicode="&#x138;" horiz-adv-x="547" 
d="M200 528v-192h48l139 192h140l-171 -242l197 -286h-149l-164 233h-40v-233h-133v528h133z" />
    <glyph glyph-name="Lacute" unicode="&#x139;" horiz-adv-x="559" 
d="M73 720h138v-598h313v-122h-451v720zM22 827l178 107l54 -97l-187 -87z" />
    <glyph glyph-name="lacute" unicode="&#x13a;" horiz-adv-x="273" 
d="M203 0h-133v720h133v-720zM15 827l178 107l54 -97l-187 -87z" />
    <glyph glyph-name="Lcommaaccent" unicode="&#x13b;" horiz-adv-x="559" 
d="M73 720h138v-598h313v-122h-451v720zM193 -233l40 176l110 -27l-62 -173z" />
    <glyph glyph-name="lcommaaccent" unicode="&#x13c;" horiz-adv-x="273" 
d="M203 0h-133v720h133v-720zM32 -233l40 176l110 -27l-62 -173z" />
    <glyph glyph-name="Lcaron" unicode="&#x13d;" horiz-adv-x="559" 
d="M73 720h138v-598h313v-122h-451v720zM293 522l31 198h121l-54 -198h-98z" />
    <glyph glyph-name="lcaron" unicode="&#x13e;" horiz-adv-x="318" 
d="M203 0h-133v720h133v-720zM239 522l31 198h121l-54 -198h-98z" />
    <glyph glyph-name="Ldot" unicode="&#x13f;" horiz-adv-x="559" 
d="M73 720h138v-598h313v-122h-451v720zM341 374c0 44 35 68 80 68c46 0 79 -24 79 -68c0 -42 -33 -66 -79 -66c-44 0 -80 24 -80 66z" />
    <glyph glyph-name="ldot" unicode="&#x140;" horiz-adv-x="392" 
d="M203 0h-133v720h133v-720zM254 368c0 44 35 68 80 68c46 0 79 -24 79 -68c0 -42 -33 -66 -79 -66c-44 0 -80 24 -80 66z" />
    <glyph glyph-name="Lslash" unicode="&#x141;" horiz-adv-x="559" 
d="M73 720h138v-276l33 12l148 58v-115l-146 -57l-35 -12v-208h313v-122h-451v282l-20 -7l-64 -25v116l65 25l19 6v323z" />
    <glyph glyph-name="lslash" unicode="&#x142;" horiz-adv-x="299" 
d="M218 0h-133v281l-76 -35v122l70 31l6 2v319h133v-272l75 33v-121l-68 -31l-7 -3v-326z" />
    <glyph glyph-name="Nacute" unicode="&#x143;" horiz-adv-x="725" 
d="M73 0v720h122l320 -487v487h137v-720h-121l-322 481v-481h-136zM266 827l178 107l54 -97l-187 -87z" />
    <glyph glyph-name="nacute" unicode="&#x144;" horiz-adv-x="566" 
d="M67 528h111l11 -70c38 44 97 82 171 82c111 0 167 -71 167 -186v-354h-133v314c0 79 -27 113 -83 113c-53 0 -95 -40 -111 -59v-368h-133v528zM203 645l156 143l69 -83l-166 -126z" />
    <glyph glyph-name="Ncommaaccent" unicode="&#x145;" horiz-adv-x="725" 
d="M73 0v720h122l320 -487v487h137v-720h-121l-322 481v-481h-136zM276 -233l40 176l110 -27l-62 -173z" />
    <glyph glyph-name="ncommaaccent" unicode="&#x146;" horiz-adv-x="566" 
d="M67 528h111l11 -70c38 44 97 82 171 82c111 0 167 -71 167 -186v-354h-133v314c0 79 -27 113 -83 113c-53 0 -95 -40 -111 -59v-368h-133v528zM200 -233l40 176l110 -27l-62 -173z" />
    <glyph glyph-name="Ncaron" unicode="&#x147;" horiz-adv-x="725" 
d="M73 0v720h122l320 -487v487h137v-720h-121l-322 481v-481h-136zM407 761h-79l-105 112l60 50l87 -66l88 66l58 -49z" />
    <glyph glyph-name="ncaron" unicode="&#x148;" horiz-adv-x="566" 
d="M67 528h111l11 -70c38 44 97 82 171 82c111 0 167 -71 167 -186v-354h-133v314c0 79 -27 113 -83 113c-53 0 -95 -40 -111 -59v-368h-133v528zM328 581h-79l-108 142l59 44l90 -90l91 89l58 -41z" />
    <glyph glyph-name="napostrophe" unicode="&#x149;" horiz-adv-x="604" 
d="M106 528h111l11 -70c38 44 97 82 171 82c111 0 167 -71 167 -186v-354h-133v314c0 79 -27 113 -83 113c-53 0 -95 -40 -111 -59v-368h-133v528zM1 652c0 30 24 51 57 51c44 0 62 -32 62 -69c0 -56 -25 -104 -100 -128l-16 38c39 16 54 38 55 67c-5 -3 -10 -4 -16 -4
c-26 0 -42 20 -42 45z" />
    <glyph glyph-name="Eng" unicode="&#x14a;" horiz-adv-x="707" 
d="M64 0v720h121l322 -496v496h136v-760c0 -98 -49 -164 -165 -164c-49 0 -100 9 -124 19l9 87c12 -4 46 -12 77 -12c46 0 69 25 69 81v48l-309 465v-484h-136z" />
    <glyph glyph-name="eng" unicode="&#x14b;" horiz-adv-x="565" 
d="M67 528h111l11 -70c38 44 97 82 171 82c111 0 168 -71 168 -186v-405c0 -95 -38 -153 -144 -153c-32 0 -65 4 -90 12l9 95c13 -4 31 -6 46 -6c32 0 45 11 45 61v356c0 79 -27 113 -83 113c-53 0 -95 -40 -111 -59v-368h-133v528z" />
    <glyph glyph-name="Omacron" unicode="&#x14c;" horiz-adv-x="774" 
d="M195 364c0 -161 74 -251 198 -251c126 0 198 89 198 251c0 148 -73 242 -197 242c-126 0 -199 -95 -199 -242zM50 364c0 232 137 368 343 368c207 0 343 -136 343 -368c0 -246 -137 -377 -343 -377s-343 132 -343 377zM246 784v89h283v-89h-283z" />
    <glyph glyph-name="omacron" unicode="&#x14d;" horiz-adv-x="597" 
d="M186 264c0 -118 51 -165 122 -165s123 47 123 165c0 117 -52 166 -123 166s-122 -53 -122 -166zM46 261c0 182 113 279 264 279c150 0 261 -95 261 -276c0 -180 -114 -277 -268 -277c-158 0 -257 97 -257 274zM164 608v89h283v-89h-283z" />
    <glyph glyph-name="Obreve" unicode="&#x14e;" horiz-adv-x="774" 
d="M195 364c0 -161 74 -251 198 -251c126 0 198 89 198 251c0 148 -73 242 -197 242c-126 0 -199 -95 -199 -242zM50 364c0 232 137 368 343 368c207 0 343 -136 343 -368c0 -246 -137 -377 -343 -377s-343 132 -343 377zM387 843c57 0 72 28 77 63l80 -13
c-9 -84 -57 -127 -157 -127s-146 38 -159 127l83 14c7 -40 24 -64 76 -64z" />
    <glyph glyph-name="obreve" unicode="&#x14f;" horiz-adv-x="594" 
d="M186 264c0 -118 51 -165 122 -165s123 47 123 165c0 117 -52 166 -123 166s-122 -53 -122 -166zM46 261c0 182 113 279 264 279c150 0 261 -95 261 -276c0 -180 -114 -277 -268 -277c-158 0 -257 97 -257 274zM308 668c57 0 72 35 77 70l80 -13
c-8 -88 -57 -134 -157 -134s-146 42 -159 134l81 14c11 -44 26 -71 78 -71z" />
    <glyph glyph-name="Ohungarumlaut" unicode="&#x150;" horiz-adv-x="774" 
d="M195 364c0 -161 74 -251 198 -251c126 0 198 89 198 251c0 148 -73 242 -197 242c-126 0 -199 -95 -199 -242zM50 364c0 232 137 368 343 368c207 0 343 -136 343 -368c0 -246 -137 -377 -343 -377s-343 132 -343 377zM356 960l81 -63l-132 -146l-65 51zM524 945l76 -68
l-132 -127l-61 56z" />
    <glyph glyph-name="ohungarumlaut" unicode="&#x151;" horiz-adv-x="594" 
d="M186 264c0 -118 51 -165 122 -165s123 47 123 165c0 117 -52 166 -123 166s-122 -53 -122 -166zM46 261c0 182 113 279 264 279c150 0 261 -95 261 -276c0 -180 -114 -277 -268 -277c-158 0 -257 97 -257 274zM268 780l82 -49l-112 -150l-68 41zM423 767l81 -50
l-112 -136l-66 41z" />
    <glyph glyph-name="OE" unicode="&#x152;" horiz-adv-x="1120" 
d="M599 0v113c-41 -81 -129 -125 -235 -125c-183 0 -314 124 -314 377c0 243 137 368 325 368c100 0 185 -45 224 -122v109h468v-122h-342v-173h311v-122h-311v-181h347v-122h-473zM195 365c0 -161 73 -251 198 -251c114 0 196 76 196 250c0 164 -79 242 -196 242
c-125 0 -198 -94 -198 -241z" />
    <glyph glyph-name="oe" unicode="&#x153;" horiz-adv-x="948" 
d="M46 261c0 182 113 279 255 279c100 0 159 -48 193 -119c27 63 93 119 190 119c141 0 222 -83 222 -254c0 -12 -1 -57 -3 -66h-340c8 -68 44 -123 132 -123c53 0 95 12 155 46l45 -90c-62 -45 -137 -66 -210 -66c-101 0 -164 45 -195 111c-35 -63 -96 -111 -200 -111
c-144 0 -244 97 -244 274zM186 264c0 -119 51 -167 122 -167s123 48 123 167c0 118 -52 168 -123 168s-122 -54 -122 -168zM564 309h215c-1 76 -24 131 -100 131c-87 0 -113 -83 -115 -131z" />
    <glyph glyph-name="Racute" unicode="&#x154;" horiz-adv-x="663" 
d="M73 720h259c176 0 264 -89 264 -225c0 -92 -37 -157 -115 -198l154 -297h-150l-133 265c-21 -3 -40 -5 -64 -5h-77v-260h-138v720zM326 601h-115v-230h109c90 0 135 41 135 118c0 75 -41 112 -129 112zM183 827l178 107l54 -97l-187 -87z" />
    <glyph glyph-name="racute" unicode="&#x155;" horiz-adv-x="371" 
d="M173 528l12 -76c25 49 68 88 117 88c19 0 37 -5 52 -11l-10 -121c-17 5 -31 7 -50 7c-40 0 -77 -36 -94 -65v-350h-133v528h106zM113 645l156 143l69 -83l-166 -126z" />
    <glyph glyph-name="Rcommaaccent" unicode="&#x156;" horiz-adv-x="663" 
d="M73 720h259c176 0 264 -89 264 -225c0 -92 -37 -157 -115 -198l154 -297h-150l-133 265c-21 -3 -40 -5 -64 -5h-77v-260h-138v720zM326 601h-115v-230h109c90 0 135 41 135 118c0 75 -41 112 -129 112zM242 -233l40 176l110 -27l-62 -173z" />
    <glyph glyph-name="rcommaaccent" unicode="&#x157;" horiz-adv-x="371" 
d="M173 528l12 -76c25 49 68 88 117 88c19 0 37 -5 52 -11l-10 -121c-17 5 -31 7 -50 7c-40 0 -77 -36 -94 -65v-350h-133v528h106zM29 -233l40 176l110 -27l-62 -173z" />
    <glyph glyph-name="Rcaron" unicode="&#x158;" horiz-adv-x="663" 
d="M73 720h259c176 0 264 -89 264 -225c0 -92 -37 -157 -115 -198l154 -297h-150l-133 265c-21 -3 -40 -5 -64 -5h-77v-260h-138v720zM326 601h-115v-230h109c90 0 135 41 135 118c0 75 -41 112 -129 112zM331 761h-79l-105 112l60 50l87 -66l88 66l58 -49z" />
    <glyph glyph-name="rcaron" unicode="&#x159;" horiz-adv-x="371" 
d="M173 528l12 -76c25 49 68 88 117 88c19 0 37 -5 52 -11l-10 -121c-17 5 -31 7 -50 7c-40 0 -77 -36 -94 -65v-350h-133v528h106zM244 581h-79l-108 142l59 44l90 -90l91 89l58 -41z" />
    <glyph glyph-name="Sacute" unicode="&#x15a;" horiz-adv-x="611" 
d="M29 107l69 85c66 -55 140 -90 213 -90c63 0 109 35 109 94c0 54 -29 84 -151 118c-150 42 -211 96 -211 209c0 141 109 209 250 209c94 0 179 -34 246 -101l-67 -82c-53 47 -116 71 -176 71c-65 0 -111 -28 -111 -83c0 -62 48 -80 167 -119c138 -45 197 -96 197 -208
c0 -139 -101 -223 -258 -223c-112 0 -206 45 -277 120zM195 827l178 107l54 -97l-187 -87z" />
    <glyph glyph-name="sacute" unicode="&#x15b;" horiz-adv-x="520" 
d="M31 79l59 80c50 -38 116 -68 167 -68c48 0 74 21 74 54c0 35 -18 51 -105 73c-114 29 -162 72 -162 159c0 102 80 163 200 163c84 0 155 -30 210 -80l-59 -77c-50 36 -99 56 -145 56c-49 0 -73 -17 -73 -47c0 -39 35 -50 115 -73c112 -32 163 -69 163 -157
c0 -112 -83 -175 -211 -175c-97 0 -179 40 -233 92zM161 645l156 143l69 -83l-166 -126z" />
    <glyph glyph-name="Scircumflex" unicode="&#x15c;" horiz-adv-x="611" 
d="M29 107l69 85c66 -55 140 -90 213 -90c63 0 109 35 109 94c0 54 -29 84 -151 118c-150 42 -211 96 -211 209c0 141 109 209 250 209c94 0 179 -34 246 -101l-67 -82c-53 47 -116 71 -176 71c-65 0 -111 -28 -111 -83c0 -62 48 -80 167 -119c138 -45 197 -96 197 -208
c0 -139 -101 -223 -258 -223c-112 0 -206 45 -277 120zM272 923h79l109 -113l-58 -49l-88 66l-87 -66l-60 50z" />
    <glyph glyph-name="scircumflex" unicode="&#x15d;" horiz-adv-x="520" 
d="M31 79l59 80c50 -38 116 -68 167 -68c48 0 74 21 74 54c0 35 -18 51 -105 73c-114 29 -162 72 -162 159c0 102 80 163 200 163c84 0 155 -30 210 -80l-59 -77c-50 36 -99 56 -145 56c-49 0 -73 -17 -73 -47c0 -39 35 -50 115 -73c112 -32 163 -69 163 -157
c0 -112 -83 -175 -211 -175c-97 0 -179 40 -233 92zM225 761h79l111 -144l-58 -41l-91 89l-91 -89l-61 40z" />
    <glyph glyph-name="Scedilla" unicode="&#x15e;" horiz-adv-x="611" 
d="M215 -205l15 57c17 -6 33 -10 57 -10c26 0 41 11 41 30c0 20 -15 31 -59 31h-18l19 86c-96 8 -178 51 -241 118l69 85c66 -55 140 -90 213 -90c63 0 109 35 109 94c0 54 -29 84 -151 118c-150 42 -211 96 -211 209c0 141 109 209 250 209c94 0 179 -34 246 -101l-67 -82
c-53 47 -116 71 -176 71c-65 0 -111 -28 -111 -83c0 -62 48 -80 167 -119c138 -45 197 -96 197 -208c0 -131 -89 -212 -230 -222l-8 -40c39 -5 87 -16 87 -77c0 -62 -47 -92 -111 -92c-40 0 -74 10 -87 16z" />
    <glyph glyph-name="scedilla" unicode="&#x15f;" horiz-adv-x="520" 
d="M156 -205l15 57c17 -6 33 -10 57 -10c26 0 41 11 41 30c0 20 -15 31 -59 31h-18l19 88c-74 11 -136 45 -180 88l56 76c50 -38 118 -65 169 -65c48 0 75 22 75 55c0 35 -19 51 -105 73c-114 29 -169 70 -169 157c0 102 81 165 207 165c84 0 155 -32 210 -82l-56 -73
c-50 36 -102 54 -146 54c-47 0 -73 -17 -73 -47c0 -39 33 -50 113 -73c112 -32 163 -69 163 -157c0 -109 -79 -171 -200 -175l-8 -39c39 -5 87 -16 87 -77c0 -62 -47 -92 -111 -92c-40 0 -74 10 -87 16z" />
    <glyph glyph-name="Scaron" unicode="&#x160;" horiz-adv-x="611" 
d="M29 107l69 85c66 -55 140 -90 213 -90c63 0 109 35 109 94c0 54 -29 84 -151 118c-150 42 -211 96 -211 209c0 141 109 209 250 209c94 0 179 -34 246 -101l-67 -82c-53 47 -116 71 -176 71c-65 0 -111 -28 -111 -83c0 -62 48 -80 167 -119c138 -45 197 -96 197 -208
c0 -139 -101 -223 -258 -223c-112 0 -206 45 -277 120zM344 761h-79l-105 112l60 50l87 -66l88 66l58 -49z" />
    <glyph glyph-name="scaron" unicode="&#x161;" horiz-adv-x="520" 
d="M31 79l59 80c50 -38 116 -68 167 -68c48 0 74 21 74 54c0 35 -18 51 -105 73c-114 29 -162 72 -162 159c0 102 80 163 200 163c84 0 155 -30 210 -80l-59 -77c-50 36 -99 56 -145 56c-49 0 -73 -17 -73 -47c0 -39 35 -50 115 -73c112 -32 163 -69 163 -157
c0 -112 -83 -175 -211 -175c-97 0 -179 40 -233 92zM303 581h-79l-108 142l59 44l90 -90l91 89l58 -41z" />
    <glyph glyph-name="Scommaaccent" unicode="&#x218;" horiz-adv-x="611" 
d="M29 107l69 85c66 -55 140 -90 213 -90c63 0 109 35 109 94c0 54 -29 84 -151 118c-150 42 -211 96 -211 209c0 141 109 209 250 209c94 0 179 -34 246 -101l-67 -82c-53 47 -116 71 -176 71c-65 0 -111 -28 -111 -83c0 -62 48 -80 167 -119c138 -45 197 -96 197 -208
c0 -139 -101 -223 -258 -223c-112 0 -206 45 -277 120zM215 -233l40 176l110 -27l-62 -173z" />
    <glyph glyph-name="scommaaccent" unicode="&#x219;" horiz-adv-x="520" 
d="M31 79l59 80c50 -38 116 -68 167 -68c48 0 74 21 74 54c0 35 -18 51 -105 73c-114 29 -162 72 -162 159c0 102 80 163 200 163c84 0 155 -30 210 -80l-59 -77c-50 36 -99 56 -145 56c-49 0 -73 -17 -73 -47c0 -39 35 -50 115 -73c112 -32 163 -69 163 -157
c0 -112 -83 -175 -211 -175c-97 0 -179 40 -233 92zM163 -233l40 176l110 -27l-62 -173z" />
    <glyph glyph-name="uni021A" unicode="&#x21a;" horiz-adv-x="613" 
d="M238 0v598h-216v122h569v-122h-215v-598h-138zM206 -233l40 176l110 -27l-62 -173z" />
    <glyph glyph-name="uni021B" unicode="&#x21b;" horiz-adv-x="355" 
d="M322 428h-95v-296c0 -31 10 -43 34 -43c16 0 47 4 62 9l13 -91c-35 -12 -84 -20 -124 -20c-79 0 -117 43 -117 118v323h-69v77l71 22l14 152h116v-151h95v-100zM109 -233l40 176l110 -27l-62 -173z" />
    <glyph glyph-name="Tcaron" unicode="&#x164;" horiz-adv-x="613" 
d="M238 0v598h-216v122h569v-122h-215v-598h-138zM339 761h-79l-105 112l60 50l87 -66l88 66l58 -49z" />
    <glyph glyph-name="tcaron" unicode="&#x165;" horiz-adv-x="355" 
d="M322 428h-95v-296c0 -31 10 -43 34 -43c16 0 47 4 62 9l13 -91c-35 -12 -84 -20 -124 -20c-79 0 -117 43 -117 118v323h-69v77l71 22l14 152h116v-151h95v-100zM274 583l31 198h121l-54 -198h-98z" />
    <glyph glyph-name="Tbar" unicode="&#x166;" horiz-adv-x="613" 
d="M115 296v108h123v194h-216v122h569v-122h-215v-194h119v-108h-119v-296h-138v296h-123z" />
    <glyph glyph-name="tbar" unicode="&#x167;" horiz-adv-x="355" 
d="M311 428h-84v-89h84v-90h-84v-117c0 -31 10 -43 34 -43c16 0 47 4 62 9l13 -91c-35 -12 -84 -20 -124 -20c-79 0 -117 43 -117 118v144h-69v90h69v89h-69v77l71 22l14 152h116v-151h84v-100z" />
    <glyph glyph-name="uni0162" unicode="&#x162;" horiz-adv-x="613" 
d="M238 0v598h-216v122h569v-122h-215v-598h-42l-10 -52c39 -5 87 -16 87 -77c0 -62 -47 -92 -111 -92c-40 0 -74 10 -87 16l15 57c17 -6 33 -10 57 -10c26 0 41 11 41 30c0 20 -15 31 -59 31h-18l21 97h-32z" />
    <glyph glyph-name="uni0163" unicode="&#x163;" horiz-adv-x="355" 
d="M104 -205l15 57c17 -6 33 -10 57 -10c26 0 41 11 41 30c0 20 -15 31 -59 31h-18l20 92c-44 15 -65 54 -65 110v323h-69v77l71 22l14 152h116v-151h84v-100h-84v-296c0 -31 10 -43 34 -43c16 0 47 4 62 9l13 -91c-32 -11 -76 -18 -113 -20l-8 -39c39 -5 87 -16 87 -77
c0 -62 -47 -92 -111 -92c-40 0 -74 10 -87 16z" />
    <glyph glyph-name="Utilde" unicode="&#x168;" horiz-adv-x="711" 
d="M70 720h138v-442c0 -114 57 -168 148 -168c103 0 147 56 147 168v442h138v-448c0 -189 -103 -284 -286 -284c-177 0 -285 87 -285 284v448zM458 900l62 -23c-13 -61 -42 -100 -94 -100c-46 0 -99 33 -126 33c-17 0 -27 -8 -41 -37l-63 24c20 63 50 100 93 100
c49 0 94 -34 129 -34c18 0 26 6 40 37z" />
    <glyph glyph-name="utilde" unicode="&#x169;" horiz-adv-x="585" 
d="M518 0h-109l-11 69c-38 -43 -90 -82 -167 -82c-123 0 -168 73 -168 183v358h133v-326c0 -66 19 -103 79 -103c48 0 84 27 110 57v372h133v-528zM381 717l62 -23c-13 -61 -42 -100 -94 -100c-46 0 -99 33 -126 33c-17 0 -27 -8 -41 -37l-63 24c20 63 50 100 93 100
c49 0 94 -34 129 -34c18 0 26 6 40 37z" />
    <glyph glyph-name="Umacron" unicode="&#x16a;" horiz-adv-x="711" 
d="M70 720h138v-442c0 -114 57 -168 148 -168c103 0 147 56 147 168v442h138v-448c0 -189 -103 -284 -286 -284c-177 0 -285 87 -285 284v448zM217 784v89h283v-89h-283z" />
    <glyph glyph-name="umacron" unicode="&#x16b;" horiz-adv-x="585" 
d="M518 0h-109l-11 69c-38 -43 -90 -82 -167 -82c-123 0 -168 73 -168 183v358h133v-326c0 -66 19 -103 79 -103c48 0 84 27 110 57v372h133v-528zM150 608v89h283v-89h-283z" />
    <glyph glyph-name="Ubreve" unicode="&#x16c;" horiz-adv-x="711" 
d="M70 720h138v-442c0 -114 57 -168 148 -168c103 0 147 56 147 168v442h138v-448c0 -189 -103 -284 -286 -284c-177 0 -285 87 -285 284v448zM360 843c57 0 72 28 77 63l80 -13c-9 -84 -57 -127 -157 -127s-146 38 -159 127l83 14c7 -40 24 -64 76 -64z" />
    <glyph glyph-name="ubreve" unicode="&#x16d;" horiz-adv-x="585" 
d="M518 0h-109l-11 69c-38 -43 -90 -82 -167 -82c-123 0 -168 73 -168 183v358h133v-326c0 -66 19 -103 79 -103c48 0 84 27 110 57v372h133v-528zM296 668c57 0 72 35 77 70l80 -13c-8 -88 -57 -134 -157 -134s-146 42 -159 134l81 14c11 -44 26 -71 78 -71z" />
    <glyph glyph-name="Uring" unicode="&#x16e;" horiz-adv-x="711" 
d="M70 720h138v-442c0 -114 57 -168 148 -168c103 0 147 56 147 168v442h138v-448c0 -189 -103 -284 -286 -284c-177 0 -285 87 -285 284v448zM320 835c0 -27 15 -39 42 -39c25 0 40 15 40 41s-14 39 -40 39c-27 0 -42 -15 -42 -41zM260 833c0 59 44 97 102 97
c56 0 100 -35 100 -93s-44 -95 -100 -95c-61 0 -102 33 -102 91z" />
    <glyph glyph-name="uring" unicode="&#x16f;" horiz-adv-x="585" 
d="M518 0h-109l-11 69c-38 -43 -90 -82 -167 -82c-123 0 -168 73 -168 183v358h133v-326c0 -66 19 -103 79 -103c48 0 84 27 110 57v372h133v-528zM256 668c0 -27 15 -39 42 -39c25 0 40 15 40 41s-14 39 -40 39c-27 0 -42 -15 -42 -41zM196 666c0 59 44 97 102 97
c56 0 100 -35 100 -93s-44 -95 -100 -95c-61 0 -102 33 -102 91z" />
    <glyph glyph-name="Uhungarumlaut" unicode="&#x170;" horiz-adv-x="711" 
d="M70 720h138v-442c0 -114 57 -168 148 -168c103 0 147 56 147 168v442h138v-448c0 -189 -103 -284 -286 -284c-177 0 -285 87 -285 284v448zM326 960l81 -63l-132 -146l-65 51zM494 945l76 -68l-132 -127l-61 56z" />
    <glyph glyph-name="uhungarumlaut" unicode="&#x171;" horiz-adv-x="585" 
d="M518 0h-109l-11 69c-38 -43 -90 -82 -167 -82c-123 0 -168 73 -168 183v358h133v-326c0 -66 19 -103 79 -103c48 0 84 27 110 57v372h133v-528zM249 780l82 -49l-112 -150l-68 41zM404 767l81 -50l-112 -136l-66 41z" />
    <glyph glyph-name="Uogonek" unicode="&#x172;" horiz-adv-x="711" 
d="M70 720h138v-442c0 -114 57 -168 148 -168c103 0 147 56 147 168v442h138v-448c0 -141 -59 -206 -146 -262c-62 -41 -94 -94 -94 -127c0 -21 9 -32 29 -32c19 0 34 3 55 12l19 -64c-24 -14 -66 -30 -110 -30c-69 0 -97 31 -97 79c0 52 29 98 74 140h-16
c-177 0 -285 87 -285 284v448z" />
    <glyph glyph-name="uogonek" unicode="&#x173;" horiz-adv-x="585" 
d="M518 0c-48 -39 -86 -84 -86 -117c0 -21 9 -32 29 -32c19 0 34 3 55 12l19 -64c-24 -14 -66 -30 -110 -30c-69 0 -97 31 -97 79c0 57 34 106 81 152l-11 69c-38 -43 -90 -82 -167 -82c-123 0 -168 73 -168 183v358h133v-326c0 -66 19 -103 79 -103c48 0 84 27 110 57v372
h133v-528z" />
    <glyph glyph-name="Wcircumflex" unicode="&#x174;" horiz-adv-x="939" 
d="M198 0l-183 720h141l128 -541l123 541h126l125 -541l124 541h142l-183 -720h-147l-124 507l-122 -507h-150zM423 923h79l109 -113l-58 -49l-88 66l-87 -66l-60 50z" />
    <glyph glyph-name="wcircumflex" unicode="&#x175;" horiz-adv-x="786" 
d="M632 528h132l-139 -528h-144l-90 345l-87 -345h-144l-138 528h132l84 -377l91 377h125l101 -377zM352 761h79l111 -144l-58 -41l-91 89l-91 -89l-61 40z" />
    <glyph glyph-name="Wgrave" unicode="&#x1e80;" horiz-adv-x="939" 
d="M198 0l-183 720h141l128 -541l123 541h126l125 -541l124 541h142l-183 -720h-147l-124 507l-122 -507h-150zM401 934l178 -107l-45 -77l-187 87z" />
    <glyph glyph-name="wgrave" unicode="&#x1e81;" horiz-adv-x="786" 
d="M632 528h132l-139 -528h-144l-90 345l-87 -345h-144l-138 528h132l84 -377l91 377h125l101 -377zM340 788l156 -143l-59 -66l-166 126z" />
    <glyph glyph-name="Wacute" unicode="&#x1e82;" horiz-adv-x="939" 
d="M198 0l-183 720h141l128 -541l123 541h126l125 -541l124 541h142l-183 -720h-147l-124 507l-122 -507h-150zM339 827l178 107l54 -97l-187 -87z" />
    <glyph glyph-name="wacute" unicode="&#x1e83;" horiz-adv-x="786" 
d="M632 528h132l-139 -528h-144l-90 345l-87 -345h-144l-138 528h132l84 -377l91 377h125l101 -377zM269 645l156 143l69 -83l-166 -126z" />
    <glyph glyph-name="Wdieresis" unicode="&#x1e84;" horiz-adv-x="939" 
d="M198 0l-183 720h141l128 -541l123 541h126l125 -541l124 541h142l-183 -720h-147l-124 507l-122 -507h-150zM301 833c0 35 26 62 69 62c47 0 70 -27 70 -62c0 -36 -28 -61 -70 -61c-44 0 -69 24 -69 61zM505 833c0 35 26 62 69 62c47 0 70 -27 70 -62
c0 -36 -28 -61 -70 -61c-44 0 -69 24 -69 61z" />
    <glyph glyph-name="wdieresis" unicode="&#x1e85;" horiz-adv-x="786" 
d="M632 528h132l-139 -528h-144l-90 345l-87 -345h-144l-138 528h132l84 -377l91 377h125l101 -377zM221 656c0 35 26 62 69 62c47 0 70 -27 70 -62c0 -36 -28 -61 -70 -61c-44 0 -69 24 -69 61zM425 656c0 35 26 62 69 62c47 0 70 -27 70 -62c0 -36 -28 -61 -70 -61
c-44 0 -69 24 -69 61z" />
    <glyph glyph-name="Ygrave" unicode="&#x1ef2;" horiz-adv-x="639" 
d="M246 0v287l-236 433h151l156 -296l157 296h155l-244 -433v-287h-139zM251 934l178 -107l-45 -77l-187 87z" />
    <glyph glyph-name="ygrave" unicode="&#x1ef3;" horiz-adv-x="531" 
d="M382 528h133l-178 -507c-53 -152 -77 -224 -216 -224c-29 0 -59 4 -89 12l10 94c16 -3 40 -7 67 -7c38 0 65 10 86 74l5 15l-184 543h139l109 -390zM195 788l156 -143l-59 -66l-166 126z" />
    <glyph glyph-name="Ycircumflex" unicode="&#x176;" horiz-adv-x="639" 
d="M246 0v287l-236 433h151l156 -296l157 296h155l-244 -433v-287h-139zM279 923h79l109 -113l-58 -49l-88 66l-87 -66l-60 50z" />
    <glyph glyph-name="ycircumflex" unicode="&#x177;" horiz-adv-x="531" 
d="M382 528h133l-178 -507c-53 -152 -77 -224 -216 -224c-29 0 -59 4 -89 12l10 94c16 -3 40 -7 67 -7c38 0 65 10 86 74l5 15l-184 543h139l109 -390zM228 761h79l111 -144l-58 -41l-91 89l-91 -89l-61 40z" />
    <glyph glyph-name="Ydieresis" unicode="&#x178;" horiz-adv-x="639" 
d="M246 0v287l-236 433h151l156 -296l157 296h155l-244 -433v-287h-139zM149 833c0 35 26 62 69 62c47 0 70 -27 70 -62c0 -36 -28 -61 -70 -61c-44 0 -69 24 -69 61zM353 833c0 35 26 62 69 62c47 0 70 -27 70 -62c0 -36 -28 -61 -70 -61c-44 0 -69 24 -69 61z" />
    <glyph glyph-name="Zacute" unicode="&#x179;" horiz-adv-x="625" 
d="M36 0v88l347 510h-327v122h533v-55l-378 -544h377v-121h-552zM223 827l178 107l54 -97l-187 -87z" />
    <glyph glyph-name="zacute" unicode="&#x17a;" horiz-adv-x="476" 
d="M41 0v83l229 344h-224v101h394v-59l-242 -369h241v-100h-398zM143 645l156 143l69 -83l-166 -126z" />
    <glyph glyph-name="Zdotaccent" unicode="&#x17b;" horiz-adv-x="625" 
d="M36 0v88l347 510h-327v122h533v-55l-378 -544h377v-121h-552zM240 837c0 44 35 68 80 68c46 0 79 -24 79 -68c0 -43 -33 -67 -79 -67c-44 0 -80 24 -80 67z" />
    <glyph glyph-name="zdotaccent" unicode="&#x17c;" horiz-adv-x="476" 
d="M41 0v83l229 344h-224v101h394v-59l-242 -369h241v-100h-398zM167 663c0 44 35 68 80 68c46 0 79 -24 79 -68c0 -42 -33 -66 -79 -66c-44 0 -80 24 -80 66z" />
    <glyph glyph-name="Zcaron" unicode="&#x17d;" horiz-adv-x="625" 
d="M36 0v88l347 510h-327v122h533v-55l-378 -544h377v-121h-552zM365 761h-79l-105 112l60 50l87 -66l88 66l58 -49z" />
    <glyph glyph-name="zcaron" unicode="&#x17e;" horiz-adv-x="476" 
d="M41 0v83l229 344h-224v101h394v-59l-242 -369h241v-100h-398zM288 581h-79l-108 142l59 44l90 -90l91 89l58 -41z" />
    <glyph glyph-name="Jcircumflex.alt" horiz-adv-x="427" 
d="M357 720v-499c0 -135 -60 -221 -257 -221h-68v119h42c124 0 144 23 144 116v485h139zM239 923h79l109 -113l-58 -49l-88 66l-87 -66l-60 50z" />
    <glyph glyph-name="jcircumflex.alt" horiz-adv-x="278" 
d="M205 528v-575c0 -98 -39 -157 -165 -157h-69v106h45c45 0 57 11 57 60v566h132zM100 761h79l111 -144l-58 -41l-91 89l-91 -89l-61 40z" />
    <glyph glyph-name="ygrave.alt" horiz-adv-x="531" 
d="M382 528h133l-189 -522v-64c0 -101 -29 -142 -147 -142h-73v103h47c38 0 44 11 44 51v48l-181 526h139l110 -374zM193 788l156 -143l-59 -66l-166 126z" />
    <glyph glyph-name="ycircumflex.alt" horiz-adv-x="531" 
d="M382 528h133l-189 -522v-64c0 -101 -29 -142 -147 -142h-73v103h47c38 0 44 11 44 51v48l-181 526h139l110 -374zM232 761h79l111 -144l-58 -41l-91 89l-91 -89l-61 40z" />
    <glyph glyph-name="ydieresis.alt" horiz-adv-x="531" 
d="M382 528h133l-189 -522v-64c0 -101 -29 -142 -147 -142h-73v103h47c38 0 44 11 44 51v48l-181 526h139l110 -374zM97 656c0 35 26 62 69 62c47 0 70 -27 70 -62c0 -36 -28 -61 -70 -61c-44 0 -69 24 -69 61zM301 656c0 35 26 62 69 62c47 0 70 -27 70 -62
c0 -36 -28 -61 -70 -61c-44 0 -69 24 -69 61z" />
    <glyph glyph-name="yacute.alt" horiz-adv-x="531" 
d="M382 528h133l-189 -522v-64c0 -101 -29 -142 -147 -142h-73v103h47c38 0 44 11 44 51v48l-181 526h139l110 -374zM179 635l156 143l69 -83l-166 -126z" />
    <glyph glyph-name="agrave.alt" horiz-adv-x="620" 
d="M437 0l-7 68c-27 -37 -80 -81 -164 -81c-147 0 -217 106 -217 275c0 179 94 278 222 278c67 0 122 -24 165 -79l9 67h110v-528h-118zM422 158v209c-20 24 -60 60 -116 60c-72 0 -117 -53 -117 -163c0 -89 29 -165 120 -165c54 0 92 34 113 59zM262 788l156 -143l-59 -66
l-166 126z" />
    <glyph glyph-name="a.alt" horiz-adv-x="620" 
d="M437 0l-7 68c-27 -37 -80 -81 -164 -81c-147 0 -217 106 -217 275c0 179 94 278 222 278c67 0 122 -24 165 -79l9 67h110v-528h-118zM422 158v209c-20 24 -60 60 -116 60c-72 0 -117 -53 -117 -163c0 -89 29 -165 120 -165c54 0 92 34 113 59z" />
    <glyph glyph-name="aacute.alt" horiz-adv-x="620" 
d="M437 0l-7 68c-27 -37 -80 -81 -164 -81c-147 0 -217 106 -217 275c0 179 94 278 222 278c67 0 122 -24 165 -79l9 67h110v-528h-118zM422 158v209c-20 24 -60 60 -116 60c-72 0 -117 -53 -117 -163c0 -89 29 -165 120 -165c54 0 92 34 113 59zM210 645l156 143l69 -83
l-166 -126z" />
    <glyph glyph-name="acircumflex.alt" horiz-adv-x="620" 
d="M437 0l-7 68c-27 -37 -80 -81 -164 -81c-147 0 -217 106 -217 275c0 179 94 278 222 278c67 0 122 -24 165 -79l9 67h110v-528h-118zM422 158v209c-20 24 -60 60 -116 60c-72 0 -117 -53 -117 -163c0 -89 29 -165 120 -165c54 0 92 34 113 59zM268 761h79l111 -144
l-58 -41l-91 89l-91 -89l-61 40z" />
    <glyph glyph-name="atilde.alt" horiz-adv-x="620" 
d="M437 0l-7 68c-27 -37 -80 -81 -164 -81c-147 0 -217 106 -217 275c0 179 94 278 222 278c67 0 122 -24 165 -79l9 67h110v-528h-118zM422 158v209c-20 24 -60 60 -116 60c-72 0 -117 -53 -117 -163c0 -89 29 -165 120 -165c54 0 92 34 113 59zM398 715l62 -23
c-13 -61 -42 -100 -94 -100c-46 0 -99 33 -126 33c-17 0 -27 -8 -41 -37l-63 24c20 63 50 100 93 100c49 0 94 -34 129 -34c18 0 26 6 40 37z" />
    <glyph glyph-name="adieresis.alt" horiz-adv-x="620" 
d="M437 0l-7 68c-27 -37 -80 -81 -164 -81c-147 0 -217 106 -217 275c0 179 94 278 222 278c67 0 122 -24 165 -79l9 67h110v-528h-118zM422 158v209c-20 24 -60 60 -116 60c-72 0 -117 -53 -117 -163c0 -89 29 -165 120 -165c54 0 92 34 113 59zM142 656c0 35 26 62 69 62
c47 0 70 -27 70 -62c0 -36 -28 -61 -70 -61c-44 0 -69 24 -69 61zM346 656c0 35 26 62 69 62c47 0 70 -27 70 -62c0 -36 -28 -61 -70 -61c-44 0 -69 24 -69 61z" />
    <glyph glyph-name="aring.alt" horiz-adv-x="620" 
d="M437 0l-7 68c-27 -37 -80 -81 -164 -81c-147 0 -217 106 -217 275c0 179 94 278 222 278c67 0 122 -24 165 -79l9 67h110v-528h-118zM422 158v209c-20 24 -60 60 -116 60c-72 0 -117 -53 -117 -163c0 -89 29 -165 120 -165c54 0 92 34 113 59zM263 668
c0 -27 15 -39 42 -39c25 0 40 15 40 41s-14 39 -40 39c-27 0 -42 -15 -42 -41zM203 666c0 59 44 97 102 97c56 0 100 -35 100 -93s-44 -95 -100 -95c-61 0 -102 33 -102 91z" />
    <glyph glyph-name="amacron.alt" horiz-adv-x="620" 
d="M437 0l-7 68c-27 -37 -80 -81 -164 -81c-147 0 -217 106 -217 275c0 179 94 278 222 278c67 0 122 -24 165 -79l9 67h110v-528h-118zM422 158v209c-20 24 -60 60 -116 60c-72 0 -117 -53 -117 -163c0 -89 29 -165 120 -165c54 0 92 34 113 59zM175 608v89h283v-89h-283z
" />
    <glyph glyph-name="abreve.alt" horiz-adv-x="620" 
d="M437 0l-7 68c-27 -37 -80 -81 -164 -81c-147 0 -217 106 -217 275c0 179 94 278 222 278c67 0 122 -24 165 -79l9 67h110v-528h-118zM422 158v209c-20 24 -60 60 -116 60c-72 0 -117 -53 -117 -163c0 -89 29 -165 120 -165c54 0 92 34 113 59zM314 668c57 0 72 35 77 70
l80 -13c-8 -88 -57 -134 -157 -134s-146 42 -159 134l81 14c11 -44 26 -71 78 -71z" />
    <glyph glyph-name="aogonek.alt" horiz-adv-x="620" 
d="M442 0l-9 68c-27 -37 -83 -81 -167 -81c-147 0 -217 106 -217 275c0 179 94 278 222 278c67 0 122 -24 165 -79l9 67h110v-528c-44 -33 -90 -84 -90 -117c0 -21 9 -32 29 -32c19 0 30 3 51 12l19 -64c-24 -14 -66 -30 -110 -30c-69 0 -100 35 -100 83c0 57 39 103 88 148
zM422 158v209c-20 24 -60 60 -116 60c-72 0 -117 -53 -117 -163c0 -89 29 -165 120 -165c54 0 92 34 113 59z" />
    <glyph glyph-name="gcircumflex.alt" horiz-adv-x="625" 
d="M555 528v-499c0 -181 -99 -229 -268 -229h-162v106h152c103 0 150 26 150 124v49c-37 -46 -94 -76 -162 -76c-139 0 -216 92 -216 258c0 165 75 279 225 279c76 0 131 -44 162 -80l9 68h110zM422 170v195c-18 24 -63 62 -117 62c-75 0 -116 -54 -116 -158
c0 -99 36 -156 118 -156c56 0 92 32 115 57zM257 761h79l111 -144l-58 -41l-91 89l-91 -89l-61 40z" />
    <glyph glyph-name="g.alt" horiz-adv-x="625" 
d="M555 528v-499c0 -181 -99 -229 -268 -229h-162v106h152c103 0 150 26 150 124v49c-37 -46 -94 -76 -162 -76c-139 0 -216 92 -216 258c0 165 75 279 225 279c76 0 131 -44 162 -80l9 68h110zM422 170v195c-18 24 -63 62 -117 62c-75 0 -116 -54 -116 -158
c0 -99 36 -156 118 -156c56 0 92 32 115 57z" />
    <glyph glyph-name="gbreve.alt" horiz-adv-x="625" 
d="M555 528v-499c0 -181 -99 -229 -268 -229h-162v106h152c103 0 150 26 150 124v49c-37 -46 -94 -76 -162 -76c-139 0 -216 92 -216 258c0 165 75 279 225 279c76 0 131 -44 162 -80l9 68h110zM422 170v195c-18 24 -63 62 -117 62c-75 0 -116 -54 -116 -158
c0 -99 36 -156 118 -156c56 0 92 32 115 57zM294 668c57 0 72 35 77 70l80 -13c-8 -88 -57 -134 -157 -134s-146 42 -159 134l81 14c11 -44 26 -71 78 -71z" />
    <glyph glyph-name="gdotaccent.alt" horiz-adv-x="625" 
d="M555 528v-499c0 -181 -99 -229 -268 -229h-162v106h152c103 0 150 26 150 124v49c-37 -46 -94 -76 -162 -76c-139 0 -216 92 -216 258c0 165 75 279 225 279c76 0 131 -44 162 -80l9 68h110zM422 170v195c-18 24 -63 62 -117 62c-75 0 -116 -54 -116 -158
c0 -99 36 -156 118 -156c56 0 92 32 115 57zM213 663c0 44 35 68 80 68c46 0 79 -24 79 -68c0 -42 -33 -66 -79 -66c-44 0 -80 24 -80 66z" />
    <glyph glyph-name="gcommaaccent.alt" horiz-adv-x="625" 
d="M555 528v-499c0 -181 -99 -229 -268 -229h-162v106h152c103 0 150 26 150 124v49c-37 -46 -94 -76 -162 -76c-139 0 -216 92 -216 258c0 165 75 279 225 279c76 0 131 -44 162 -80l9 68h110zM422 170v195c-18 24 -63 62 -117 62c-75 0 -116 -54 -116 -158
c0 -99 36 -156 118 -156c56 0 92 32 115 57zM385 756l-40 -176l-110 27l62 173z" />
    <glyph glyph-name="longs" unicode="&#x17f;" horiz-adv-x="309" 
d="M83 0v431h-66v76l66 15v55c0 94 45 155 148 155c33 0 60 -3 88 -11l-7 -87c-14 4 -30 7 -46 7c-29 0 -50 -16 -50 -59v-582h-133z" />
    <glyph glyph-name="dotlessj" unicode="&#x237;" horiz-adv-x="260" 
d="M196 528v-578c0 -98 -39 -154 -144 -154c-32 0 -62 4 -87 12l8 94c13 -3 29 -5 43 -5c32 0 48 11 48 60v571h132z" />
    <glyph glyph-name="perthousand" unicode="&#x2030;" horiz-adv-x="1208" 
d="M541 164c0 102 73 179 175 179c65 0 109 -24 139 -61c31 33 76 61 143 61c99 0 172 -66 172 -176c0 -101 -77 -176 -174 -176c-67 0 -116 26 -143 62c-32 -37 -75 -62 -139 -62c-103 0 -173 71 -173 173zM38 533c0 102 72 179 183 179c109 0 183 -74 183 -176
c0 -101 -78 -177 -183 -177c-114 0 -183 71 -183 174zM202 0l439 720h110l-441 -720h-108zM140 536c0 -52 31 -86 81 -86s80 36 80 86s-30 87 -80 87s-81 -36 -81 -87zM643 167c0 -51 32 -86 82 -86c49 0 79 36 79 86c0 49 -30 87 -79 87c-51 0 -82 -37 -82 -87zM907 167
c0 -51 31 -86 81 -86c49 0 79 36 79 86c0 49 -30 87 -79 87c-51 0 -81 -37 -81 -87z" />
    <glyph glyph-name="percent" unicode="%" horiz-adv-x="945" 
d="M643 167c0 -51 32 -86 82 -86c49 0 79 36 79 86c0 49 -30 87 -79 87c-51 0 -82 -37 -82 -87zM541 164c0 102 73 179 184 179c109 0 182 -76 182 -176c0 -101 -77 -176 -182 -176c-114 0 -184 71 -184 173zM140 536c0 -52 31 -86 81 -86s80 36 80 86s-30 87 -80 87
s-81 -36 -81 -87zM38 533c0 102 72 179 183 179c109 0 183 -74 183 -176c0 -101 -78 -177 -183 -177c-114 0 -183 71 -183 174zM202 0l439 720h110l-441 -720h-108z" />
    <glyph glyph-name="fraction" unicode="&#x2044;" horiz-adv-x="133" 
d="M-210 0l441 720h103l-439 -720h-105z" />
    <glyph glyph-name="zerosuperior" unicode="&#x2070;" horiz-adv-x="386" 
d="M24 587c0 118 63 194 170 194c106 0 168 -76 168 -192c0 -120 -64 -196 -172 -196c-103 0 -166 68 -166 194zM131 587c0 -70 17 -108 61 -108c46 0 62 48 62 107c0 76 -21 109 -60 109c-42 0 -63 -34 -63 -108z" />
    <glyph glyph-name="onesuperior" unicode="&#xb9;" horiz-adv-x="289" 
d="M232 400h-107v250c-33 -6 -59 -7 -91 -3l-8 64c45 10 93 32 123 63h83v-374z" />
    <glyph glyph-name="twosuperior" unicode="&#xb2;" horiz-adv-x="338" 
d="M27 400v62l125 122c29 28 50 47 50 75c0 25 -19 36 -51 36c-30 0 -67 -17 -98 -39l-39 58c40 36 100 67 168 67c74 0 128 -39 128 -106c0 -44 -19 -75 -62 -113l-91 -81h154v-81h-284z" />
    <glyph glyph-name="threesuperior" unicode="&#xb3;" horiz-adv-x="342" 
d="M7 444l36 60c34 -21 64 -35 105 -35c42 0 65 14 65 44c0 29 -23 41 -72 41c-11 0 -32 -2 -39 -3v75c54 1 92 14 92 47c0 28 -23 34 -53 34s-62 -11 -89 -24l-25 58c36 22 84 40 144 40c81 0 127 -33 127 -94c0 -43 -29 -77 -76 -90c67 -6 95 -42 95 -91
c0 -76 -65 -113 -155 -113c-60 0 -116 17 -155 51z" />
    <glyph glyph-name="foursuperior" unicode="&#x2074;" horiz-adv-x="381" 
d="M219 702l-106 -159h106v159zM219 400v64h-192v78l159 232h131v-231h40v-79h-40v-64h-98z" />
    <glyph glyph-name="fivesuperior" unicode="&#x2075;" horiz-adv-x="344" 
d="M38 533l18 241h233l-5 -80h-151l-7 -76c16 10 42 21 78 21c78 0 113 -44 113 -113c0 -86 -66 -133 -155 -133c-58 0 -112 19 -148 47l32 58c31 -17 72 -29 103 -29c41 0 70 16 70 55c0 30 -19 46 -51 46c-22 0 -38 -8 -49 -16l-2 -21h-79z" />
    <glyph glyph-name="sixsuperior" unicode="&#x2076;" horiz-adv-x="365" 
d="M34 567c0 123 55 214 177 214c40 0 81 -10 112 -26l-25 -64c-27 14 -51 19 -76 19c-67 0 -86 -46 -89 -109c24 21 56 35 94 35c77 0 113 -50 113 -111c0 -92 -70 -132 -151 -132c-113 0 -155 68 -155 174zM196 566c-24 0 -46 -14 -60 -26c1 -45 16 -78 55 -78
c33 0 52 19 52 54s-19 50 -47 50z" />
    <glyph glyph-name="sevensuperior" unicode="&#x2077;" horiz-adv-x="326" 
d="M310 716l-138 -316h-106v9l130 281h-176v84h290v-58z" />
    <glyph glyph-name="eightsuperior" unicode="&#x2078;" horiz-adv-x="360" 
d="M112 504c0 -31 27 -47 65 -47c37 0 59 16 59 47c0 33 -38 47 -75 58c-24 -13 -49 -28 -49 -58zM136 683c0 -25 26 -40 56 -51c19 12 40 30 40 54s-18 35 -49 35c-30 0 -47 -14 -47 -38zM24 497c0 54 41 83 80 100c-37 15 -64 40 -64 84c0 59 55 100 139 100
c91 0 141 -35 141 -91c0 -42 -29 -70 -62 -86c47 -21 77 -49 77 -98c0 -73 -65 -113 -158 -113c-94 0 -153 38 -153 104z" />
    <glyph glyph-name="ninesuperior" unicode="&#x2079;" horiz-adv-x="362" 
d="M332 607c0 -123 -56 -214 -178 -214c-40 0 -80 10 -111 26l23 67c22 -11 52 -20 78 -20c66 0 85 44 90 109c-27 -26 -57 -39 -96 -39c-76 0 -113 52 -113 113c0 92 71 132 151 132c114 0 156 -68 156 -174zM172 607c24 0 46 11 60 25c0 51 -18 81 -56 81
c-34 0 -54 -20 -54 -55s20 -51 50 -51z" />
    <glyph glyph-name="zeroinferior" unicode="&#x2080;" horiz-adv-x="386" 
d="M24 91c0 118 63 194 170 194c106 0 168 -76 168 -192c0 -120 -64 -196 -172 -196c-103 0 -166 68 -166 194zM131 91c0 -70 17 -108 61 -108c46 0 62 48 62 107c0 76 -21 109 -60 109c-42 0 -63 -34 -63 -108z" />
    <glyph glyph-name="oneinferior" unicode="&#x2081;" horiz-adv-x="289" 
d="M232 -96h-107v250c-33 -6 -59 -7 -91 -3l-8 64c45 10 93 32 123 63h83v-374z" />
    <glyph glyph-name="twoinferior" unicode="&#x2082;" horiz-adv-x="338" 
d="M27 -96v62l125 122c29 28 50 47 50 75c0 25 -19 36 -51 36c-30 0 -67 -17 -98 -39l-39 58c40 36 100 67 168 67c74 0 128 -39 128 -106c0 -44 -19 -75 -62 -113l-91 -81h154v-81h-284z" />
    <glyph glyph-name="threeinferior" unicode="&#x2083;" horiz-adv-x="342" 
d="M7 -52l36 60c34 -21 64 -35 105 -35c42 0 65 14 65 44c0 29 -23 41 -72 41c-11 0 -32 -2 -39 -3v75c54 1 92 14 92 47c0 28 -23 34 -53 34s-62 -11 -89 -24l-25 58c36 22 84 40 144 40c81 0 127 -33 127 -94c0 -43 -29 -77 -76 -90c67 -6 95 -42 95 -91
c0 -76 -65 -113 -155 -113c-60 0 -116 17 -155 51z" />
    <glyph glyph-name="fourinferior" unicode="&#x2084;" horiz-adv-x="381" 
d="M219 206l-106 -159h106v159zM219 -96v64h-192v78l159 232h131v-231h40v-79h-40v-64h-98z" />
    <glyph glyph-name="fiveinferior" unicode="&#x2085;" horiz-adv-x="344" 
d="M38 37l18 241h233l-5 -80h-151l-7 -76c16 10 42 21 78 21c78 0 113 -44 113 -113c0 -86 -66 -133 -155 -133c-58 0 -112 19 -148 47l32 58c31 -17 72 -29 103 -29c41 0 70 16 70 55c0 30 -19 46 -51 46c-22 0 -38 -8 -49 -16l-2 -21h-79z" />
    <glyph glyph-name="sixinferior" unicode="&#x2086;" horiz-adv-x="365" 
d="M34 71c0 123 55 214 177 214c40 0 81 -10 112 -26l-25 -64c-27 14 -51 19 -76 19c-67 0 -86 -46 -89 -109c24 21 56 35 94 35c77 0 113 -50 113 -111c0 -92 -70 -132 -151 -132c-113 0 -155 68 -155 174zM196 70c-24 0 -46 -14 -60 -26c1 -45 16 -78 55 -78
c33 0 52 19 52 54s-19 50 -47 50z" />
    <glyph glyph-name="seveninferior" unicode="&#x2087;" horiz-adv-x="326" 
d="M310 220l-138 -316h-106v9l130 281h-176v84h290v-58z" />
    <glyph glyph-name="eightinferior" unicode="&#x2088;" horiz-adv-x="360" 
d="M112 8c0 -31 27 -47 65 -47c37 0 59 16 59 47c0 33 -38 47 -75 58c-24 -13 -49 -28 -49 -58zM136 187c0 -25 26 -40 56 -51c19 12 40 30 40 54s-18 35 -49 35c-30 0 -47 -14 -47 -38zM24 1c0 54 41 83 80 100c-37 15 -64 40 -64 84c0 59 55 100 139 100
c91 0 141 -35 141 -91c0 -42 -29 -70 -62 -86c47 -21 77 -49 77 -98c0 -73 -65 -113 -158 -113c-94 0 -153 38 -153 104z" />
    <glyph glyph-name="nineinferior" unicode="&#x2089;" horiz-adv-x="362" 
d="M332 111c0 -123 -56 -214 -178 -214c-40 0 -80 10 -111 26l23 67c22 -11 52 -20 78 -20c66 0 85 44 90 109c-27 -26 -57 -39 -96 -39c-76 0 -113 52 -113 113c0 92 71 132 151 132c114 0 156 -68 156 -174zM172 111c24 0 46 11 60 25c0 51 -18 81 -56 81
c-34 0 -54 -20 -54 -55s20 -51 50 -51z" />
    <glyph glyph-name="zero.num" horiz-adv-x="386" 
d="M24 537c0 118 63 194 170 194c106 0 168 -76 168 -192c0 -120 -64 -196 -172 -196c-103 0 -166 68 -166 194zM131 537c0 -70 17 -108 61 -108c46 0 62 48 62 107c0 76 -21 109 -60 109c-42 0 -63 -34 -63 -108z" />
    <glyph glyph-name="one.num" horiz-adv-x="289" 
d="M232 350h-107v250c-33 -6 -59 -7 -91 -3l-8 64c45 10 93 32 123 63h83v-374z" />
    <glyph glyph-name="two.num" horiz-adv-x="338" 
d="M27 350v62l125 122c29 28 50 47 50 75c0 25 -19 36 -51 36c-30 0 -67 -17 -98 -39l-39 58c40 36 100 67 168 67c74 0 128 -39 128 -106c0 -44 -19 -75 -62 -113l-91 -81h154v-81h-284z" />
    <glyph glyph-name="three.num" horiz-adv-x="342" 
d="M7 394l36 60c34 -21 64 -35 105 -35c42 0 65 14 65 44c0 29 -23 41 -72 41c-11 0 -32 -2 -39 -3v75c54 1 92 14 92 47c0 28 -23 34 -53 34s-62 -11 -89 -24l-25 58c36 22 84 40 144 40c81 0 127 -33 127 -94c0 -43 -29 -77 -76 -90c67 -6 95 -42 95 -91
c0 -76 -65 -113 -155 -113c-60 0 -116 17 -155 51z" />
    <glyph glyph-name="four.num" horiz-adv-x="381" 
d="M219 652l-106 -159h106v159zM219 350v64h-192v78l159 232h131v-231h40v-79h-40v-64h-98z" />
    <glyph glyph-name="five.num" horiz-adv-x="344" 
d="M38 483l18 241h233l-5 -80h-151l-7 -76c16 10 42 21 78 21c78 0 113 -44 113 -113c0 -86 -66 -133 -155 -133c-58 0 -112 19 -148 47l32 58c31 -17 72 -29 103 -29c41 0 70 16 70 55c0 30 -19 46 -51 46c-22 0 -38 -8 -49 -16l-2 -21h-79z" />
    <glyph glyph-name="six.num" horiz-adv-x="365" 
d="M34 517c0 123 55 214 177 214c40 0 81 -10 112 -26l-25 -64c-27 14 -51 19 -76 19c-67 0 -86 -46 -89 -109c24 21 56 35 94 35c77 0 113 -50 113 -111c0 -92 -70 -132 -151 -132c-113 0 -155 68 -155 174zM196 516c-24 0 -46 -14 -60 -26c1 -45 16 -78 55 -78
c33 0 52 19 52 54s-19 50 -47 50z" />
    <glyph glyph-name="seven.num" horiz-adv-x="326" 
d="M310 666l-138 -316h-106v9l130 281h-176v84h290v-58z" />
    <glyph glyph-name="eight.num" horiz-adv-x="360" 
d="M112 454c0 -31 27 -47 65 -47c37 0 59 16 59 47c0 33 -38 47 -75 58c-24 -13 -49 -28 -49 -58zM136 633c0 -25 26 -40 56 -51c19 12 40 30 40 54s-18 35 -49 35c-30 0 -47 -14 -47 -38zM24 447c0 54 41 83 80 100c-37 15 -64 40 -64 84c0 59 55 100 139 100
c91 0 141 -35 141 -91c0 -42 -29 -70 -62 -86c47 -21 77 -49 77 -98c0 -73 -65 -113 -158 -113c-94 0 -153 38 -153 104z" />
    <glyph glyph-name="nine.num" horiz-adv-x="362" 
d="M332 557c0 -123 -56 -214 -178 -214c-40 0 -80 10 -111 26l23 67c22 -11 52 -20 78 -20c66 0 85 44 90 109c-27 -26 -57 -39 -96 -39c-76 0 -113 52 -113 113c0 92 71 132 151 132c114 0 156 -68 156 -174zM172 557c24 0 46 11 60 25c0 51 -18 81 -56 81
c-34 0 -54 -20 -54 -55s20 -51 50 -51z" />
    <glyph glyph-name="zero.denom" horiz-adv-x="386" 
d="M24 187c0 118 63 194 170 194c106 0 168 -76 168 -192c0 -120 -64 -196 -172 -196c-103 0 -166 68 -166 194zM131 187c0 -70 17 -108 61 -108c46 0 62 48 62 107c0 76 -21 109 -60 109c-42 0 -63 -34 -63 -108z" />
    <glyph glyph-name="one.denom" horiz-adv-x="289" 
d="M232 0h-107v250c-33 -6 -59 -7 -91 -3l-8 64c45 10 93 32 123 63h83v-374z" />
    <glyph glyph-name="two.denom" horiz-adv-x="338" 
d="M27 0v62l125 122c29 28 50 47 50 75c0 25 -19 36 -51 36c-30 0 -67 -17 -98 -39l-39 58c40 36 100 67 168 67c74 0 128 -39 128 -106c0 -44 -19 -75 -62 -113l-91 -81h154v-81h-284z" />
    <glyph glyph-name="three.denom" horiz-adv-x="342" 
d="M7 44l36 60c34 -21 64 -35 105 -35c42 0 65 14 65 44c0 29 -23 41 -72 41c-11 0 -32 -2 -39 -3v75c54 1 92 14 92 47c0 28 -23 34 -53 34s-62 -11 -89 -24l-25 58c36 22 84 40 144 40c81 0 127 -33 127 -94c0 -43 -29 -77 -76 -90c67 -6 95 -42 95 -91
c0 -76 -65 -113 -155 -113c-60 0 -116 17 -155 51z" />
    <glyph glyph-name="four.denom" horiz-adv-x="381" 
d="M219 302l-106 -159h106v159zM219 0v64h-192v78l159 232h131v-231h40v-79h-40v-64h-98z" />
    <glyph glyph-name="five.denom" horiz-adv-x="344" 
d="M38 133l18 241h233l-5 -80h-151l-7 -76c16 10 42 21 78 21c78 0 113 -44 113 -113c0 -86 -66 -133 -155 -133c-58 0 -112 19 -148 47l32 58c31 -17 72 -29 103 -29c41 0 70 16 70 55c0 30 -19 46 -51 46c-22 0 -38 -8 -49 -16l-2 -21h-79z" />
    <glyph glyph-name="six.denom" horiz-adv-x="365" 
d="M34 167c0 123 55 214 177 214c40 0 81 -10 112 -26l-25 -64c-27 14 -51 19 -76 19c-67 0 -86 -46 -89 -109c24 21 56 35 94 35c77 0 113 -50 113 -111c0 -92 -70 -132 -151 -132c-113 0 -155 68 -155 174zM196 166c-24 0 -46 -14 -60 -26c1 -45 16 -78 55 -78
c33 0 52 19 52 54s-19 50 -47 50z" />
    <glyph glyph-name="seven.denom" horiz-adv-x="326" 
d="M310 316l-138 -316h-106v9l130 281h-176v84h290v-58z" />
    <glyph glyph-name="eight.denom" horiz-adv-x="360" 
d="M112 104c0 -31 27 -47 65 -47c37 0 59 16 59 47c0 33 -38 47 -75 58c-24 -13 -49 -28 -49 -58zM136 283c0 -25 26 -40 56 -51c19 12 40 30 40 54s-18 35 -49 35c-30 0 -47 -14 -47 -38zM24 97c0 54 41 83 80 100c-37 15 -64 40 -64 84c0 59 55 100 139 100
c91 0 141 -35 141 -91c0 -42 -29 -70 -62 -86c47 -21 77 -49 77 -98c0 -73 -65 -113 -158 -113c-94 0 -153 38 -153 104z" />
    <glyph glyph-name="nine.denom" horiz-adv-x="362" 
d="M332 207c0 -123 -56 -214 -178 -214c-40 0 -80 10 -111 26l23 67c22 -11 52 -20 78 -20c66 0 85 44 90 109c-27 -26 -57 -39 -96 -39c-76 0 -113 52 -113 113c0 92 71 132 151 132c114 0 156 -68 156 -174zM172 207c24 0 46 11 60 25c0 51 -18 81 -56 81
c-34 0 -54 -20 -54 -55s20 -51 50 -51z" />
    <glyph glyph-name="onehalf" unicode="&#xbd;" horiz-adv-x="885" 
d="M113 0l441 720h103l-439 -720h-105zM249 350h-107v250c-33 -6 -59 -7 -91 -3l-8 64c45 10 93 32 123 63h83v-374zM504 0v62l125 122c29 28 50 47 50 75c0 25 -19 36 -51 36c-30 0 -67 -17 -98 -39l-39 58c40 36 100 67 168 67c74 0 128 -39 128 -106
c0 -44 -19 -75 -62 -113l-91 -81h154v-81h-284z" />
    <glyph glyph-name="onequarter" unicode="&#xbc;" horiz-adv-x="885" 
d="M147 0l441 720h103l-439 -720h-105zM254 350h-107v250c-33 -6 -59 -7 -91 -3l-8 64c45 10 93 32 123 63h83v-374zM677 302l-106 -159h106v159zM677 0v64h-192v78l159 232h131v-231h40v-79h-40v-64h-98z" />
    <glyph glyph-name="threequarters" unicode="&#xbe;" horiz-adv-x="885" 
d="M195 0l441 720h103l-439 -720h-105zM696 302l-106 -159h106v159zM696 0v64h-192v78l159 232h131v-231h40v-79h-40v-64h-98zM66 394l36 60c34 -21 64 -35 105 -35c42 0 65 14 65 44c0 29 -23 41 -72 41c-11 0 -32 -2 -39 -3v75c54 1 92 14 92 47c0 28 -23 34 -53 34
s-62 -11 -89 -24l-25 58c36 22 84 40 144 40c81 0 127 -33 127 -94c0 -43 -29 -77 -76 -90c67 -6 95 -42 95 -91c0 -76 -65 -113 -155 -113c-60 0 -116 17 -155 51z" />
    <glyph glyph-name="onethird" unicode="&#x2153;" horiz-adv-x="885" 
d="M117 0l441 720h103l-439 -720h-105zM239 350h-107v250c-33 -6 -59 -7 -91 -3l-8 64c45 10 93 32 123 63h83v-374zM506 44l36 60c34 -21 64 -35 105 -35c42 0 65 14 65 44c0 29 -23 41 -72 41c-11 0 -32 -2 -39 -3v75c54 1 92 14 92 47c0 28 -23 34 -53 34
s-62 -11 -89 -24l-25 58c36 22 84 40 144 40c81 0 127 -33 127 -94c0 -43 -29 -77 -76 -90c67 -6 95 -42 95 -91c0 -76 -65 -113 -155 -113c-60 0 -116 17 -155 51z" />
    <glyph glyph-name="twothirds" unicode="&#x2154;" horiz-adv-x="885" 
d="M186 0l441 720h103l-439 -720h-105zM46 350v62l125 122c29 28 50 47 50 75c0 25 -19 36 -51 36c-30 0 -67 -17 -98 -39l-39 58c40 36 100 67 168 67c74 0 128 -39 128 -106c0 -44 -19 -75 -62 -113l-91 -81h154v-81h-284zM557 44l36 60c34 -21 64 -35 105 -35
c42 0 65 14 65 44c0 29 -23 41 -72 41c-11 0 -32 -2 -39 -3v75c54 1 92 14 92 47c0 28 -23 34 -53 34s-62 -11 -89 -24l-25 58c36 22 84 40 144 40c81 0 127 -33 127 -94c0 -43 -29 -77 -76 -90c67 -6 95 -42 95 -91c0 -76 -65 -113 -155 -113c-60 0 -116 17 -155 51z" />
    <glyph glyph-name="onefifth" unicode="&#xf500;" horiz-adv-x="885" 
d="M127 0l441 720h103l-439 -720h-105zM258 350h-107v250c-33 -6 -59 -7 -91 -3l-8 64c45 10 93 32 123 63h83v-374zM527 133l18 241h233l-5 -80h-151l-7 -76c16 10 42 21 78 21c78 0 113 -44 113 -113c0 -86 -66 -133 -155 -133c-58 0 -112 19 -148 47l32 58
c31 -17 72 -29 103 -29c41 0 70 16 70 55c0 30 -19 46 -51 46c-22 0 -38 -8 -49 -16l-2 -21h-79z" />
    <glyph glyph-name="twofifths" unicode="&#xf501;" horiz-adv-x="885" 
d="M181 0l441 720h103l-439 -720h-105zM49 350v62l125 122c29 28 50 47 50 75c0 25 -19 36 -51 36c-30 0 -67 -17 -98 -39l-39 58c40 36 100 67 168 67c74 0 128 -39 128 -106c0 -44 -19 -75 -62 -113l-91 -81h154v-81h-284zM566 133l18 241h233l-5 -80h-151l-7 -76
c16 10 42 21 78 21c78 0 113 -44 113 -113c0 -86 -66 -133 -155 -133c-58 0 -112 19 -148 47l32 58c31 -17 72 -29 103 -29c41 0 70 16 70 55c0 30 -19 46 -51 46c-22 0 -38 -8 -49 -16l-2 -21h-79z" />
    <glyph glyph-name="threefifths" unicode="&#xf502;" horiz-adv-x="885" 
d="M176 0l441 720h103l-439 -720h-105zM565 133l18 241h233l-5 -80h-151l-7 -76c16 10 42 21 78 21c78 0 113 -44 113 -113c0 -86 -66 -133 -155 -133c-58 0 -112 19 -148 47l32 58c31 -17 72 -29 103 -29c41 0 70 16 70 55c0 30 -19 46 -51 46c-22 0 -38 -8 -49 -16l-2 -21
h-79zM61 394l36 60c34 -21 64 -35 105 -35c42 0 65 14 65 44c0 29 -23 41 -72 41c-11 0 -32 -2 -39 -3v75c54 1 92 14 92 47c0 28 -23 34 -53 34s-62 -11 -89 -24l-25 58c36 22 84 40 144 40c81 0 127 -33 127 -94c0 -43 -29 -77 -76 -90c67 -6 95 -42 95 -91
c0 -76 -65 -113 -155 -113c-60 0 -116 17 -155 51z" />
    <glyph glyph-name="fourfifths" unicode="&#xf503;" horiz-adv-x="885" 
d="M177 0l441 720h103l-439 -720h-105zM564 133l18 241h233l-5 -80h-151l-7 -76c16 10 42 21 78 21c78 0 113 -44 113 -113c0 -86 -66 -133 -155 -133c-58 0 -112 19 -148 47l32 58c31 -17 72 -29 103 -29c41 0 70 16 70 55c0 30 -19 46 -51 46c-22 0 -38 -8 -49 -16l-2 -21
h-79zM219 652l-106 -159h106v159zM219 350v64h-192v78l159 232h131v-231h40v-79h-40v-64h-98z" />
    <glyph glyph-name="onesixth" unicode="&#xf504;" horiz-adv-x="885" 
d="M135 0l441 720h103l-439 -720h-105zM257 350h-107v250c-33 -6 -59 -7 -91 -3l-8 64c45 10 93 32 123 63h83v-374zM497 167c0 123 55 214 177 214c40 0 81 -10 112 -26l-25 -64c-27 14 -51 19 -76 19c-67 0 -86 -46 -89 -109c24 21 56 35 94 35c77 0 113 -50 113 -111
c0 -92 -70 -132 -151 -132c-113 0 -155 68 -155 174zM659 166c-24 0 -46 -14 -60 -26c1 -45 16 -78 55 -78c33 0 52 19 52 54s-19 50 -47 50z" />
    <glyph glyph-name="fivesixths" unicode="&#xf505;" horiz-adv-x="885" 
d="M166 0l441 720h103l-439 -720h-105zM515 167c0 123 55 214 177 214c40 0 81 -10 112 -26l-25 -64c-27 14 -51 19 -76 19c-67 0 -86 -46 -89 -109c24 21 56 35 94 35c77 0 113 -50 113 -111c0 -92 -70 -132 -151 -132c-113 0 -155 68 -155 174zM677 166
c-24 0 -46 -14 -60 -26c1 -45 16 -78 55 -78c33 0 52 19 52 54s-19 50 -47 50zM76 483l18 241h233l-5 -80h-151l-7 -76c16 10 42 21 78 21c78 0 113 -44 113 -113c0 -86 -66 -133 -155 -133c-58 0 -112 19 -148 47l32 58c31 -17 72 -29 103 -29c41 0 70 16 70 55
c0 30 -19 46 -51 46c-22 0 -38 -8 -49 -16l-2 -21h-79z" />
    <glyph glyph-name="oneeighth" unicode="&#x215b;" horiz-adv-x="885" 
d="M133 0l441 720h103l-439 -720h-105zM253 350h-107v250c-33 -6 -59 -7 -91 -3l-8 64c45 10 93 32 123 63h83v-374zM590 104c0 -31 27 -47 65 -47c37 0 59 16 59 47c0 33 -38 47 -75 58c-24 -13 -49 -28 -49 -58zM614 283c0 -25 26 -40 56 -51c19 12 40 30 40 54
s-18 35 -49 35c-30 0 -47 -14 -47 -38zM502 97c0 54 41 83 80 100c-37 15 -64 40 -64 84c0 59 55 100 139 100c91 0 141 -35 141 -91c0 -42 -29 -70 -62 -86c47 -21 77 -49 77 -98c0 -73 -65 -113 -158 -113c-94 0 -153 38 -153 104z" />
    <glyph glyph-name="threeeighths" unicode="&#x215c;" horiz-adv-x="885" 
d="M163 0l441 720h103l-439 -720h-105zM608 104c0 -31 27 -47 65 -47c37 0 59 16 59 47c0 33 -38 47 -75 58c-24 -13 -49 -28 -49 -58zM632 283c0 -25 26 -40 56 -51c19 12 40 30 40 54s-18 35 -49 35c-30 0 -47 -14 -47 -38zM520 97c0 54 41 83 80 100
c-37 15 -64 40 -64 84c0 59 55 100 139 100c91 0 141 -35 141 -91c0 -42 -29 -70 -62 -86c47 -21 77 -49 77 -98c0 -73 -65 -113 -158 -113c-94 0 -153 38 -153 104zM40 394l36 60c34 -21 64 -35 105 -35c42 0 65 14 65 44c0 29 -23 41 -72 41c-11 0 -32 -2 -39 -3v75
c54 1 92 14 92 47c0 28 -23 34 -53 34s-62 -11 -89 -24l-25 58c36 22 84 40 144 40c81 0 127 -33 127 -94c0 -43 -29 -77 -76 -90c67 -6 95 -42 95 -91c0 -76 -65 -113 -155 -113c-60 0 -116 17 -155 51z" />
    <glyph glyph-name="fiveeighths" unicode="&#x215d;" horiz-adv-x="885" 
d="M166 0l441 720h103l-439 -720h-105zM71 483l18 241h233l-5 -80h-151l-7 -76c16 10 42 21 78 21c78 0 113 -44 113 -113c0 -86 -66 -133 -155 -133c-58 0 -112 19 -148 47l32 58c31 -17 72 -29 103 -29c41 0 70 16 70 55c0 30 -19 46 -51 46c-22 0 -38 -8 -49 -16l-2 -21
h-79zM618 104c0 -31 27 -47 65 -47c37 0 59 16 59 47c0 33 -38 47 -75 58c-24 -13 -49 -28 -49 -58zM642 283c0 -25 26 -40 56 -51c19 12 40 30 40 54s-18 35 -49 35c-30 0 -47 -14 -47 -38zM530 97c0 54 41 83 80 100c-37 15 -64 40 -64 84c0 59 55 100 139 100
c91 0 141 -35 141 -91c0 -42 -29 -70 -62 -86c47 -21 77 -49 77 -98c0 -73 -65 -113 -158 -113c-94 0 -153 38 -153 104z" />
    <glyph glyph-name="seveneighths" unicode="&#x215e;" horiz-adv-x="885" 
d="M132 0l441 720h103l-439 -720h-105zM602 104c0 -31 27 -47 65 -47c37 0 59 16 59 47c0 33 -38 47 -75 58c-24 -13 -49 -28 -49 -58zM626 283c0 -25 26 -40 56 -51c19 12 40 30 40 54s-18 35 -49 35c-30 0 -47 -14 -47 -38zM514 97c0 54 41 83 80 100
c-37 15 -64 40 -64 84c0 59 55 100 139 100c91 0 141 -35 141 -91c0 -42 -29 -70 -62 -86c47 -21 77 -49 77 -98c0 -73 -65 -113 -158 -113c-94 0 -153 38 -153 104zM344 666l-138 -316h-106v9l130 281h-176v84h290v-58z" />
    <glyph glyph-name="oneseventh" unicode="&#xf506;" horiz-adv-x="885" 
d="M113 0l441 720h103l-439 -720h-105zM233 350h-107v250c-33 -6 -59 -7 -91 -3l-8 64c45 10 93 32 123 63h83v-374zM822 316l-138 -316h-106v9l130 281h-176v84h290v-58z" />
    <glyph glyph-name="twosevenths" unicode="&#xf507;" horiz-adv-x="885" 
d="M179 0l441 720h103l-439 -720h-105zM45 350v62l125 122c29 28 50 47 50 75c0 25 -19 36 -51 36c-30 0 -67 -17 -98 -39l-39 58c40 36 100 67 168 67c74 0 128 -39 128 -106c0 -44 -19 -75 -62 -113l-91 -81h154v-81h-284zM853 316l-138 -316h-106v9l130 281h-176v84h290
v-58z" />
    <glyph glyph-name="threesevenths" unicode="&#xf508;" horiz-adv-x="885" 
d="M145 0l441 720h103l-439 -720h-105zM835 316l-138 -316h-106v9l130 281h-176v84h290v-58zM29 394l36 60c34 -21 64 -35 105 -35c42 0 65 14 65 44c0 29 -23 41 -72 41c-11 0 -32 -2 -39 -3v75c54 1 92 14 92 47c0 28 -23 34 -53 34s-62 -11 -89 -24l-25 58
c36 22 84 40 144 40c81 0 127 -33 127 -94c0 -43 -29 -77 -76 -90c67 -6 95 -42 95 -91c0 -76 -65 -113 -155 -113c-60 0 -116 17 -155 51z" />
    <glyph glyph-name="foursevenths" unicode="&#xf509;" horiz-adv-x="885" 
d="M158 0l441 720h103l-439 -720h-105zM211 652l-106 -159h106v159zM211 350v64h-192v78l159 232h131v-231h40v-79h-40v-64h-98zM845 316l-138 -316h-106v9l130 281h-176v84h290v-58z" />
    <glyph glyph-name="fivesevenths" unicode="&#xf50a;" horiz-adv-x="885" 
d="M144 0l441 720h103l-439 -720h-105zM61 483l18 241h233l-5 -80h-151l-7 -76c16 10 42 21 78 21c78 0 113 -44 113 -113c0 -86 -66 -133 -155 -133c-58 0 -112 19 -148 47l32 58c31 -17 72 -29 103 -29c41 0 70 16 70 55c0 30 -19 46 -51 46c-22 0 -38 -8 -49 -16l-2 -21
h-79zM833 316l-138 -316h-106v9l130 281h-176v84h290v-58z" />
    <glyph glyph-name="sixsevenths" unicode="&#xf50b;" horiz-adv-x="885" 
d="M151 0l441 720h103l-439 -720h-105zM36 517c0 123 55 214 177 214c40 0 81 -10 112 -26l-25 -64c-27 14 -51 19 -76 19c-67 0 -86 -46 -89 -109c24 21 56 35 94 35c77 0 113 -50 113 -111c0 -92 -70 -132 -151 -132c-113 0 -155 68 -155 174zM198 516
c-24 0 -46 -14 -60 -26c1 -45 16 -78 55 -78c33 0 52 19 52 54s-19 50 -47 50zM849 316l-138 -316h-106v9l130 281h-176v84h290v-58z" />
    <glyph glyph-name="oneninth" unicode="&#xf50c;" horiz-adv-x="885" 
d="M136 0l441 720h103l-439 -720h-105zM250 350h-107v250c-33 -6 -59 -7 -91 -3l-8 64c45 10 93 32 123 63h83v-374zM833 207c0 -123 -56 -214 -178 -214c-40 0 -80 10 -111 26l23 67c22 -11 52 -20 78 -20c66 0 85 44 90 109c-27 -26 -57 -39 -96 -39
c-76 0 -113 52 -113 113c0 92 71 132 151 132c114 0 156 -68 156 -174zM673 207c24 0 46 11 60 25c0 51 -18 81 -56 81c-34 0 -54 -20 -54 -55s20 -51 50 -51z" />
    <glyph glyph-name="twoninths" unicode="&#xf50d;" horiz-adv-x="885" 
d="M194 0l441 720h103l-439 -720h-105zM52 350v62l125 122c29 28 50 47 50 75c0 25 -19 36 -51 36c-30 0 -67 -17 -98 -39l-39 58c40 36 100 67 168 67c74 0 128 -39 128 -106c0 -44 -19 -75 -62 -113l-91 -81h154v-81h-284zM855 207c0 -123 -56 -214 -178 -214
c-40 0 -80 10 -111 26l23 67c22 -11 52 -20 78 -20c66 0 85 44 90 109c-27 -26 -57 -39 -96 -39c-76 0 -113 52 -113 113c0 92 71 132 151 132c114 0 156 -68 156 -174zM695 207c24 0 46 11 60 25c0 51 -18 81 -56 81c-34 0 -54 -20 -54 -55s20 -51 50 -51z" />
    <glyph glyph-name="fourninths" unicode="&#xf50e;" horiz-adv-x="885" 
d="M189 0l441 720h103l-439 -720h-105zM229 652l-106 -159h106v159zM229 350v64h-192v78l159 232h131v-231h40v-79h-40v-64h-98zM853 207c0 -123 -56 -214 -178 -214c-40 0 -80 10 -111 26l23 67c22 -11 52 -20 78 -20c66 0 85 44 90 109c-27 -26 -57 -39 -96 -39
c-76 0 -113 52 -113 113c0 92 71 132 151 132c114 0 156 -68 156 -174zM693 207c24 0 46 11 60 25c0 51 -18 81 -56 81c-34 0 -54 -20 -54 -55s20 -51 50 -51z" />
    <glyph glyph-name="fiveninths" unicode="&#xf50f;" horiz-adv-x="885" 
d="M154 0l441 720h103l-439 -720h-105zM64 483l18 241h233l-5 -80h-151l-7 -76c16 10 42 21 78 21c78 0 113 -44 113 -113c0 -86 -66 -133 -155 -133c-58 0 -112 19 -148 47l32 58c31 -17 72 -29 103 -29c41 0 70 16 70 55c0 30 -19 46 -51 46c-22 0 -38 -8 -49 -16l-2 -21
h-79zM824 207c0 -123 -56 -214 -178 -214c-40 0 -80 10 -111 26l23 67c22 -11 52 -20 78 -20c66 0 85 44 90 109c-27 -26 -57 -39 -96 -39c-76 0 -113 52 -113 113c0 92 71 132 151 132c114 0 156 -68 156 -174zM664 207c24 0 46 11 60 25c0 51 -18 81 -56 81
c-34 0 -54 -20 -54 -55s20 -51 50 -51z" />
    <glyph glyph-name="sevenninths" unicode="&#xf510;" horiz-adv-x="885" 
d="M110 0l441 720h103l-439 -720h-105zM815 207c0 -123 -56 -214 -178 -214c-40 0 -80 10 -111 26l23 67c22 -11 52 -20 78 -20c66 0 85 44 90 109c-27 -26 -57 -39 -96 -39c-76 0 -113 52 -113 113c0 92 71 132 151 132c114 0 156 -68 156 -174zM655 207c24 0 46 11 60 25
c0 51 -18 81 -56 81c-34 0 -54 -20 -54 -55s20 -51 50 -51zM316 666l-138 -316h-106v9l130 281h-176v84h290v-58z" />
    <glyph glyph-name="eightninths" unicode="&#xf511;" horiz-adv-x="885" 
d="M168 0l441 720h103l-439 -720h-105zM830 207c0 -123 -56 -214 -178 -214c-40 0 -80 10 -111 26l23 67c22 -11 52 -20 78 -20c66 0 85 44 90 109c-27 -26 -57 -39 -96 -39c-76 0 -113 52 -113 113c0 92 71 132 151 132c114 0 156 -68 156 -174zM670 207c24 0 46 11 60 25
c0 51 -18 81 -56 81c-34 0 -54 -20 -54 -55s20 -51 50 -51zM139 454c0 -31 27 -47 65 -47c37 0 59 16 59 47c0 33 -38 47 -75 58c-24 -13 -49 -28 -49 -58zM163 633c0 -25 26 -40 56 -51c19 12 40 30 40 54s-18 35 -49 35c-30 0 -47 -14 -47 -38zM51 447c0 54 41 83 80 100
c-37 15 -64 40 -64 84c0 59 55 100 139 100c91 0 141 -35 141 -91c0 -42 -29 -70 -62 -86c47 -21 77 -49 77 -98c0 -73 -65 -113 -158 -113c-94 0 -153 38 -153 104z" />
    <glyph glyph-name="minus" unicode="&#x2212;" 
d="M560 336v-84h-520v84h520z" />
    <glyph glyph-name="uni2215" unicode="&#x2215;" horiz-adv-x="133" 
d="M-210 0l441 720h103l-439 -720h-105z" />
    <glyph glyph-name="uni2219" unicode="&#x2219;" horiz-adv-x="299" 
d="M78 334c0 46 28 74 76 74c47 0 78 -28 78 -71c0 -42 -31 -72 -78 -72c-49 0 -76 30 -76 69z" />
    <glyph glyph-name="approxequal" unicode="&#x2248;" horiz-adv-x="743" 
d="M649 266l55 -96c-58 -45 -130 -77 -206 -77c-90 0 -180 61 -258 61c-53 0 -101 -24 -158 -59l-53 95c65 45 131 77 206 77c87 0 178 -60 256 -60c56 0 106 25 158 59zM651 471l55 -96c-58 -45 -130 -77 -206 -77c-90 0 -180 61 -258 61c-53 0 -101 -24 -158 -59l-53 95
c65 45 131 77 206 77c87 0 178 -60 256 -60c56 0 106 25 158 59z" />
    <glyph glyph-name="notequal" unicode="&#x2260;" 
d="M560 243v-85h-282l-96 -158h-105l96 158h-134v85h186l60 97h-246v84h297l61 99h103l-61 -99h121v-84h-172l-59 -97h231z" />
    <glyph glyph-name="lessequal" unicode="&#x2264;" 
d="M560 85v-85h-520v85h520zM524 126l-484 212v62l482 212l36 -84l-362 -158l364 -157z" />
    <glyph glyph-name="greaterequal" unicode="&#x2265;" 
d="M40 0v85h520v-85h-520zM560 338l-484 -212l-36 87l364 157l-362 158l36 84l482 -212v-62z" />
    <glyph glyph-name="less" unicode="&#x3c;" 
d="M554 44l-531 221v62l529 222l36 -86l-404 -167l406 -165z" />
    <glyph glyph-name="equal" unicode="=" 
d="M560 243v-85h-521v85h521zM560 424v-84h-521v84h521z" />
    <glyph glyph-name="greater" unicode="&#x3e;" 
d="M578 267l-530 -221l-36 86l404 166l-403 167l36 86l529 -222v-62z" />
    <glyph glyph-name="logicalnot" unicode="&#xac;" 
d="M569 123h-87v191h-450v82h537v-273z" />
    <glyph glyph-name="plus" unicode="+" 
d="M343 556v-220h218v-84h-218v-219h-87v219h-218v84h218v220h87z" />
    <glyph glyph-name="plusminus" unicode="&#xb1;" 
d="M560 84v-84h-520v84h216v170h-217v82h217v174h87v-174h217v-82h-217v-170h217z" />
    <glyph glyph-name="divide" unicode="&#xf7;" 
d="M300 526c31 0 56 -26 56 -58c0 -30 -24 -56 -56 -56s-58 26 -58 56c0 31 26 58 58 58zM40 252v84h520v-84h-520zM299 180c32 0 57 -27 57 -58c0 -30 -24 -57 -58 -57c-30 0 -57 27 -57 57c0 31 27 58 58 58z" />
    <glyph glyph-name="multiply" unicode="&#xd7;" 
d="M517 444l-155 -154l155 -155l-61 -61l-155 156l-154 -156l-64 64l155 155l-155 154l61 61l154 -155l155 155z" />
    <glyph glyph-name="partialdiff" unicode="&#x2202;" horiz-adv-x="606" 
d="M244 -13c-117 0 -198 73 -198 202c0 144 82 261 226 261c63 0 128 -36 145 -102c3 31 6 60 6 84c0 110 -37 169 -125 169c-46 0 -90 -10 -133 -32l-34 80c61 37 132 52 189 52c144 0 221 -93 221 -272c0 -198 -69 -442 -297 -442zM262 87c85 0 128 79 128 146
c0 79 -38 120 -98 120c-86 0 -121 -82 -121 -155s36 -111 91 -111z" />
    <glyph glyph-name="Omega" unicode="&#x2126;" horiz-adv-x="825" 
d="M466 0v133c82 43 147 119 147 254c0 136 -72 219 -197 219s-199 -88 -199 -220c0 -133 62 -209 132 -253v-133h-284v119h155v8c-73 41 -149 134 -149 269c0 212 140 337 345 337s344 -114 344 -323c0 -151 -86 -248 -167 -284v-7h158v-119h-285z" />
    <glyph glyph-name="Delta" unicode="&#x2206;" horiz-adv-x="704" 
d="M267 720h168l250 -720h-667zM192 112h311l-152 470z" />
    <glyph glyph-name="product" unicode="&#x220f;" horiz-adv-x="733" 
d="M80 -140v860h573v-860h-138v743h-297v-743h-138z" />
    <glyph glyph-name="summation" unicode="&#x2211;" horiz-adv-x="597" 
d="M543 601h-322l187 -284l-189 -317h352v-119h-560v52l233 384l-233 351v52h532v-119z" />
    <glyph glyph-name="uni0394" unicode="&#x394;" horiz-adv-x="704" 
d="M267 720h168l250 -720h-667zM192 112h311l-152 470z" />
    <glyph glyph-name="uni03A9" unicode="&#x3a9;" horiz-adv-x="825" 
d="M466 0v133c82 43 147 119 147 254c0 136 -72 219 -197 219s-199 -88 -199 -220c0 -133 62 -209 132 -253v-133h-284v119h155v8c-73 41 -149 134 -149 269c0 212 140 337 345 337s344 -114 344 -323c0 -151 -86 -248 -167 -284v-7h158v-119h-285z" />
    <glyph glyph-name="uni03BC" unicode="&#x3bc;" horiz-adv-x="588" 
d="M516 0h-117v64c-22 -40 -63 -71 -118 -71c-39 0 -65 13 -87 37v-230h-132v728h132v-330c0 -73 33 -106 89 -106c50 0 83 33 101 64v372h132v-528z" />
    <glyph glyph-name="pi" unicode="&#x3c0;" horiz-adv-x="722" 
d="M672 528v-101h-79v-427h-131v427h-194v-427h-132v427h-86v101h622z" />
    <glyph glyph-name="mu" unicode="&#xb5;" horiz-adv-x="588" 
d="M516 0h-117v64c-22 -40 -63 -71 -118 -71c-39 0 -65 13 -87 37v-230h-132v728h132v-330c0 -73 33 -106 89 -106c50 0 83 33 101 64v372h132v-528z" />
    <glyph glyph-name="radical" unicode="&#x221a;" horiz-adv-x="753" 
d="M38 232v95h222l117 -341l281 838h118l-336 -990h-124l-146 398h-132z" />
    <glyph glyph-name="infinity" unicode="&#x221e;" horiz-adv-x="784" 
d="M733 314c0 -103 -66 -169 -147 -169c-93 0 -146 57 -191 102c-56 -59 -112 -102 -185 -102c-94 0 -159 57 -159 156c0 96 63 165 165 165c79 0 130 -44 180 -107c58 61 109 108 188 108c101 0 149 -72 149 -153zM642 306c0 48 -22 83 -75 83c-43 0 -74 -29 -121 -84
c33 -38 80 -83 125 -83c49 0 71 42 71 84zM344 304c-43 57 -78 84 -120 84c-57 0 -82 -40 -82 -84c0 -50 28 -83 82 -83c37 0 83 33 120 83z" />
    <glyph glyph-name="integral" unicode="&#x222b;" horiz-adv-x="357" 
d="M-8 -102h62c44 0 70 22 70 91v627c0 107 47 174 158 174h75v-97h-55c-40 1 -54 -25 -54 -75v-638c0 -110 -53 -180 -183 -180h-73v98z" />
    <glyph glyph-name="lozenge" unicode="&#x25ca;" horiz-adv-x="625" 
d="M262 0l-193 352l193 348h93l202 -346l-202 -354h-93zM310 589l-128 -238l128 -240l133 240z" />
    <glyph glyph-name="zero.tf" 
d="M178 352c0 -166 36 -253 122 -253c84 0 121 86 121 255c0 164 -34 255 -121 255c-86 0 -122 -91 -122 -257zM47 352c0 243 90 368 255 368c164 0 250 -125 250 -361c0 -249 -89 -372 -255 -372c-165 0 -250 123 -250 365z" />
    <glyph glyph-name="one.tf" 
d="M267 100v448c-46 -25 -97 -43 -157 -50l-17 88c71 18 153 66 203 124h101v-610h133v-100h-410v100h147z" />
    <glyph glyph-name="two.tf" 
d="M78 0v80l245 296c46 56 65 92 65 138c0 57 -43 94 -101 94c-54 0 -114 -36 -168 -76l-57 81c65 60 151 107 247 107c110 0 209 -64 209 -189c0 -78 -24 -128 -82 -199l-185 -226h277v-106h-450z" />
    <glyph glyph-name="three.tf" 
d="M38 84l59 78c45 -37 104 -68 171 -68c70 0 122 35 122 107c0 66 -36 110 -131 111c-18 0 -53 -2 -63 -4v105c89 3 161 46 161 117c0 58 -41 83 -95 83c-55 0 -101 -18 -147 -46l-49 81c63 44 129 72 218 72c116 0 199 -63 199 -172c0 -79 -48 -143 -132 -169v-3
c109 -11 163 -78 163 -176c0 -136 -107 -213 -238 -213c-87 0 -171 29 -238 97z" />
    <glyph glyph-name="four.tf" 
d="M168 260h184v332zM352 0v153h-306v102l264 455h167v-450h80v-107h-80v-153h-125z" />
    <glyph glyph-name="five.tf" 
d="M89 260l35 450h369l-7 -112h-261l-18 -189c27 24 67 44 130 44c119 0 193 -77 193 -221c0 -163 -110 -245 -247 -245c-72 0 -158 24 -221 76l43 84c61 -33 111 -51 164 -51c75 0 136 41 136 134c0 82 -36 124 -106 124c-49 0 -79 -21 -99 -42l-5 -52h-106z" />
    <glyph glyph-name="six.tf" 
d="M66 310c0 264 97 410 270 410c57 0 113 -15 175 -52l-39 -87c-40 23 -81 36 -123 36c-114 0 -156 -116 -162 -244c42 41 96 74 163 74c117 0 191 -84 191 -214c0 -172 -100 -246 -231 -246c-168 0 -244 118 -244 323zM309 89c61 0 109 39 109 133c0 88 -43 121 -103 121
c-53 0 -102 -36 -125 -60c4 -137 42 -194 119 -194z" />
    <glyph glyph-name="seven.tf" 
d="M523 654l-250 -654h-138v13l233 586h-311v111h466v-56z" />
    <glyph glyph-name="eight.tf" 
d="M178 189c0 -62 41 -100 115 -100c70 0 115 44 115 106c0 73 -75 109 -129 132c-52 -27 -101 -71 -101 -138zM212 539c0 -53 49 -86 99 -108c38 21 82 63 82 113c0 55 -35 81 -92 81s-89 -35 -89 -86zM56 179c0 101 70 163 138 197c-62 26 -110 81 -110 161
c0 108 85 183 219 183c126 0 210 -68 210 -170c0 -77 -54 -134 -111 -166c84 -41 138 -99 138 -188c0 -132 -100 -209 -250 -209c-149 0 -234 71 -234 192z" />
    <glyph glyph-name="nine.tf" 
d="M537 408c0 -278 -99 -421 -261 -421c-68 0 -140 20 -190 56l42 86c33 -19 84 -40 135 -40c107 0 142 115 151 234c-43 -40 -96 -65 -160 -65c-123 0 -193 94 -193 220c0 157 101 242 231 242c164 0 245 -119 245 -312zM292 615c-60 0 -110 -40 -110 -129
c0 -88 46 -124 106 -124c53 0 99 31 124 60c0 120 -42 193 -120 193z" />
    <glyph glyph-name="dollar.tf" 
d="M244 -88v91c-84 13 -158 56 -200 99l62 79c58 -49 126 -78 185 -78c62 0 106 26 106 80s-22 83 -141 113c-125 31 -187 90 -187 198c0 103 75 169 176 185v84h106v-85c66 -12 128 -45 168 -88l-58 -71c-45 40 -104 64 -159 64c-62 0 -106 -24 -106 -76
c0 -55 40 -80 149 -113c125 -37 184 -90 184 -199c0 -105 -72 -174 -178 -192v-91h-107z" />
    <glyph glyph-name="Euro.tf" 
d="M-2 386l6 77h69c31 141 132 257 288 257c83 0 168 -30 231 -109l-64 -67c-41 45 -103 75 -164 75c-87 0 -142 -63 -165 -156h289l-6 -77h-294c-1 -13 -1 -20 -1 -33c0 -14 1 -23 2 -36h287l-7 -77h-267c21 -92 84 -143 164 -143c70 0 122 26 170 68l58 -75
c-76 -71 -152 -103 -247 -103c-148 0 -247 109 -273 253h-88l7 77h71c-1 13 -2 21 -2 35c0 13 0 21 1 34h-65z" />
    <glyph glyph-name="cent.tf" 
d="M495 235l38 -82c-43 -35 -93 -60 -152 -70v-101h-109v99c-124 19 -206 114 -206 271c0 150 82 249 207 269v98h108v-100c98 -19 156 -89 160 -203h-111c-6 70 -46 101 -102 101c-75 0 -122 -52 -122 -161c0 -101 46 -172 134 -172c56 0 102 18 155 51z" />
    <glyph glyph-name="sterling.tf" 
d="M323 228c0 -49 -26 -92 -53 -123h267v-105h-452v95l54 7c30 32 59 78 59 126c0 27 -14 69 -22 88h-90v86h58c-23 45 -38 80 -38 130c0 110 96 188 221 188c85 0 161 -31 213 -89l-54 -74c-40 34 -85 59 -141 59c-64 0 -105 -36 -105 -94c0 -35 13 -70 37 -120h155v-86
h-129c9 -23 20 -63 20 -88z" />
    <glyph glyph-name="yen.tf" 
d="M577 710l-184 -329h147v-85h-181v-66h181v-85h-181v-145h-123v145h-180v85h180v66h-180v85h146l-179 329h139l138 -276l143 276h134z" />
    <glyph glyph-name="florin.tf" 
d="M38 -105h39c36 0 54 13 66 69l76 358h-80v89h99l24 124c22 109 48 175 167 175h79v-98h-56c-48 0 -57 -29 -69 -88l-22 -113h91v-89h-108l-66 -310c-31 -147 -49 -212 -176 -212h-64v95z" />
    <glyph glyph-name="zero.osf" horiz-adv-x="626" 
d="M180 302c0 -138 44 -204 133 -204s133 65 133 208c0 138 -45 193 -133 193c-86 0 -133 -64 -133 -197zM48 303c0 196 99 309 268 309c171 0 262 -101 262 -305s-92 -320 -266 -320c-178 0 -264 114 -264 316z" />
    <glyph glyph-name="one.osf" horiz-adv-x="487" 
d="M217 100v339c-46 -25 -97 -43 -157 -50l-17 88c71 18 153 66 203 124h100v-501h131v-100h-407v100h147z" />
    <glyph glyph-name="two.osf" horiz-adv-x="540" 
d="M43 0v77l219 218c52 51 82 82 82 132c0 47 -37 73 -87 73c-61 0 -116 -36 -168 -75l-61 79c61 58 145 108 247 108c109 0 208 -55 208 -174c0 -73 -27 -114 -96 -182l-151 -150h257v-106h-450z" />
    <glyph glyph-name="three.osf" horiz-adv-x="534" 
d="M12 27l58 78c51 -42 104 -70 172 -70c69 0 121 37 121 102c0 58 -36 89 -132 90c-17 0 -50 -2 -60 -4l-4 106c89 2 164 29 164 98c0 57 -43 78 -97 78c-50 0 -105 -19 -147 -46l-49 81c63 44 132 72 221 72c116 0 197 -55 197 -164c0 -75 -53 -127 -133 -154v-3
c106 -13 165 -71 165 -165c0 -133 -113 -197 -239 -197c-87 0 -174 32 -237 98z" />
    <glyph glyph-name="four.osf" horiz-adv-x="593" 
d="M165 198h199v290zM364 -62v153h-321v102l279 408h167v-403h80v-107h-80v-153h-125z" />
    <glyph glyph-name="five.osf" horiz-adv-x="542" 
d="M58 183l31 418h369l-8 -112h-260l-13 -157c30 25 66 44 130 44c118 0 192 -75 192 -208c0 -157 -109 -239 -246 -239c-72 0 -158 24 -221 76l43 86c61 -33 111 -51 164 -51c75 0 136 40 136 129c0 68 -36 110 -100 110c-50 0 -85 -21 -105 -42l-5 -54h-107z" />
    <glyph glyph-name="six.osf" horiz-adv-x="568" 
d="M54 310c0 264 97 410 270 410c57 0 113 -15 175 -52l-39 -87c-40 23 -81 36 -123 36c-114 0 -156 -116 -162 -244c42 41 96 74 163 74c117 0 191 -84 191 -214c0 -172 -100 -246 -231 -246c-168 0 -244 118 -244 323zM297 89c61 0 109 39 109 133c0 88 -43 121 -103 121
c-53 0 -102 -36 -125 -60c4 -137 42 -194 119 -194z" />
    <glyph glyph-name="seven.osf" horiz-adv-x="485" 
d="M464 545l-240 -605h-138v13l223 537h-291v111h446v-56z" />
    <glyph glyph-name="eight.osf" horiz-adv-x="536" 
d="M148 189c0 -62 41 -100 115 -100c70 0 115 44 115 106c0 73 -75 109 -129 132c-52 -27 -101 -71 -101 -138zM182 539c0 -53 49 -86 99 -108c38 21 82 63 82 113c0 55 -35 81 -92 81s-89 -35 -89 -86zM26 179c0 101 70 163 138 197c-62 26 -110 81 -110 161
c0 108 85 183 219 183c126 0 210 -68 210 -170c0 -77 -54 -134 -111 -166c84 -41 138 -99 138 -188c0 -132 -100 -209 -250 -209c-149 0 -234 71 -234 192z" />
    <glyph glyph-name="nine.osf" horiz-adv-x="560" 
d="M516 300c0 -278 -99 -372 -261 -372c-68 0 -140 20 -190 56l38 85c37 -22 90 -40 138 -40c110 0 138 81 152 198c-43 -40 -96 -69 -160 -69c-123 0 -193 86 -193 212c0 157 101 242 231 242c164 0 245 -119 245 -312zM271 507c-60 0 -110 -40 -110 -129
c0 -88 46 -116 106 -116c53 0 99 31 124 60c-2 115 -42 185 -120 185z" />
    <glyph glyph-name="dollar.osf" horiz-adv-x="548" 
d="M220 -88v91c-84 13 -158 56 -200 99l62 79c58 -49 126 -78 185 -78c62 0 106 26 106 80s-22 83 -141 113c-125 31 -187 90 -187 198c0 103 75 169 176 185v84h106v-85c66 -12 128 -45 168 -88l-58 -71c-45 40 -104 64 -159 64c-62 0 -106 -24 -106 -76
c0 -55 40 -80 149 -113c125 -37 184 -90 184 -199c0 -105 -72 -174 -178 -192v-91h-107z" />
    <glyph glyph-name="Euro.osf" horiz-adv-x="617" 
d="M0 386l6 77h69c31 141 132 257 288 257c83 0 168 -30 231 -109l-64 -67c-41 45 -103 75 -164 75c-87 0 -142 -63 -165 -156h289l-6 -77h-294c-1 -13 -1 -20 -1 -33c0 -14 1 -23 2 -36h287l-7 -77h-267c21 -92 84 -143 164 -143c70 0 122 26 170 68l58 -75
c-76 -71 -152 -103 -247 -103c-148 0 -247 109 -273 253h-88l7 77h71c-1 13 -2 21 -2 35c0 13 0 21 1 34h-65z" />
    <glyph glyph-name="cent.osf" horiz-adv-x="562" 
d="M480 157l38 -82c-43 -35 -93 -60 -152 -70v-101h-109v99c-124 19 -206 114 -206 271c0 150 82 249 207 269v98h108v-100c98 -19 156 -89 160 -203h-111c-6 70 -46 101 -102 101c-75 0 -122 -52 -122 -161c0 -101 46 -172 134 -172c56 0 102 18 155 51z" />
    <glyph glyph-name="sterling.osf" horiz-adv-x="516" 
d="M276 228c0 -49 -26 -92 -53 -123h267v-105h-452v95l54 7c30 32 59 78 59 126c0 27 -14 69 -22 88h-90v86h58c-23 45 -38 80 -38 130c0 110 96 188 221 188c85 0 161 -31 213 -89l-54 -74c-40 34 -85 59 -141 59c-64 0 -105 -36 -105 -94c0 -35 13 -70 37 -120h155v-86
h-129c9 -23 20 -63 20 -88z" />
    <glyph glyph-name="yen.osf" horiz-adv-x="595" 
d="M574 710l-184 -329h147v-85h-181v-66h181v-85h-181v-145h-123v145h-180v85h180v66h-180v85h146l-179 329h139l138 -276l143 276h134z" />
    <glyph glyph-name="florin.osf" horiz-adv-x="470" 
d="M-16 -105h39c36 0 54 13 66 69l76 358h-80v89h99l24 124c22 109 48 175 167 175h79v-98h-56c-48 0 -57 -29 -69 -88l-22 -113h91v-89h-108l-66 -310c-31 -147 -49 -212 -176 -212h-64v95z" />
    <glyph glyph-name="zero.tosf" unicode="&#xf81e;" 
d="M178 305c0 -139 37 -205 121 -205s123 64 123 207c0 139 -41 193 -121 193c-81 0 -123 -64 -123 -195zM49 303c0 196 90 309 251 309c169 0 250 -101 250 -305s-82 -320 -251 -320s-250 114 -250 316z" />
    <glyph glyph-name="one.tosf" unicode="&#xf81f;" 
d="M272 100v339c-46 -25 -97 -43 -157 -50l-17 88c71 18 153 66 203 124h100v-501h131v-100h-407v100h147z" />
    <glyph glyph-name="two.tosf" unicode="&#xf820;" 
d="M82 0v77l219 218c52 51 82 82 82 132c0 47 -37 73 -87 73c-61 0 -116 -36 -168 -75l-61 79c61 58 145 108 247 108c109 0 208 -55 208 -174c0 -73 -27 -114 -96 -182l-151 -150h257v-106h-450z" />
    <glyph glyph-name="three.tosf" unicode="&#xf821;" 
d="M48 27l58 78c51 -42 104 -70 172 -70c69 0 121 37 121 102c0 58 -36 89 -132 90c-17 0 -50 -2 -60 -4l-4 106c89 2 164 29 164 98c0 57 -43 78 -97 78c-50 0 -105 -19 -147 -46l-49 81c63 44 132 72 221 72c116 0 197 -55 197 -164c0 -75 -53 -127 -133 -154v-3
c106 -13 165 -71 165 -165c0 -133 -113 -197 -239 -197c-87 0 -174 32 -237 98z" />
    <glyph glyph-name="four.tosf" unicode="&#xf822;" 
d="M165 197h189v291zM354 -62v153h-311v101l269 409h167v-404h80v-106h-80v-153h-125z" />
    <glyph glyph-name="five.tosf" unicode="&#xf823;" 
d="M94 183l31 418h369l-8 -112h-260l-13 -157c30 25 66 44 130 44c118 0 192 -75 192 -208c0 -157 -109 -239 -246 -239c-72 0 -158 24 -221 76l43 86c61 -33 111 -51 164 -51c75 0 136 40 136 129c0 68 -36 110 -100 110c-50 0 -85 -21 -105 -42l-5 -54h-107z" />
    <glyph glyph-name="six.tosf" unicode="&#xf824;" 
d="M64 310c0 264 97 410 270 410c57 0 113 -15 175 -52l-39 -87c-40 23 -81 36 -123 36c-114 0 -156 -116 -162 -244c42 41 96 74 163 74c117 0 191 -84 191 -214c0 -172 -100 -246 -231 -246c-168 0 -244 118 -244 323zM307 89c61 0 109 39 109 133c0 88 -43 121 -103 121
c-53 0 -102 -36 -125 -60c4 -137 42 -194 119 -194z" />
    <glyph glyph-name="seven.tosf" unicode="&#xf825;" 
d="M523 545l-240 -605h-138v13l223 537h-308v111h463v-56z" />
    <glyph glyph-name="eight.tosf" unicode="&#xf826;" 
d="M185 189c0 -62 41 -100 115 -100c70 0 115 44 115 106c0 73 -75 109 -129 132c-52 -27 -101 -71 -101 -138zM219 539c0 -53 49 -86 99 -108c38 21 82 63 82 113c0 55 -35 81 -92 81s-89 -35 -89 -86zM63 179c0 101 70 163 138 197c-62 26 -110 81 -110 161
c0 108 85 183 219 183c126 0 210 -68 210 -170c0 -77 -54 -134 -111 -166c84 -41 138 -99 138 -188c0 -132 -100 -209 -250 -209c-149 0 -234 71 -234 192z" />
    <glyph glyph-name="nine.tosf" unicode="&#xf827;" 
d="M539 300c0 -278 -99 -372 -261 -372c-68 0 -140 20 -190 56l38 85c37 -22 90 -40 138 -40c110 0 138 81 152 198c-43 -40 -96 -69 -160 -69c-123 0 -193 86 -193 212c0 157 101 242 231 242c164 0 245 -119 245 -312zM294 507c-60 0 -110 -40 -110 -129
c0 -88 46 -116 106 -116c53 0 99 31 124 60c-2 115 -42 185 -120 185z" />
    <glyph glyph-name="dollar.tosf" 
d="M245 -88v91c-84 13 -158 56 -200 99l62 79c58 -49 126 -78 185 -78c62 0 106 26 106 80s-22 83 -141 113c-125 31 -187 90 -187 198c0 103 75 169 176 185v84h106v-85c66 -12 128 -45 168 -88l-58 -71c-45 40 -104 64 -159 64c-62 0 -106 -24 -106 -76
c0 -55 40 -80 149 -113c125 -37 184 -90 184 -199c0 -105 -72 -174 -178 -192v-91h-107z" />
    <glyph glyph-name="Euro.tosf" 
d="M7 386l6 77h69c31 141 132 257 288 257c83 0 168 -30 231 -109l-64 -67c-41 45 -103 75 -164 75c-87 0 -142 -63 -165 -156h289l-6 -77h-294c-1 -13 -1 -20 -1 -33c0 -14 1 -23 2 -36h287l-7 -77h-267c21 -92 84 -143 164 -143c70 0 122 26 170 68l58 -75
c-76 -71 -152 -103 -247 -103c-148 0 -247 109 -273 253h-88l7 77h71c-1 13 -2 21 -2 35c0 13 0 21 1 34h-65z" />
    <glyph glyph-name="cent.tosf" 
d="M496 156l38 -82c-43 -35 -93 -60 -152 -70v-101h-109v99c-124 19 -206 114 -206 271c0 150 82 249 207 269v98h108v-100c98 -19 156 -89 160 -203h-111c-6 70 -46 101 -102 101c-75 0 -122 -52 -122 -161c0 -101 46 -172 134 -172c56 0 102 18 155 51z" />
    <glyph glyph-name="sterling.tosf" 
d="M317 228c0 -49 -26 -92 -53 -123h267v-105h-452v95l54 7c30 32 59 78 59 126c0 27 -14 69 -22 88h-90v86h58c-23 45 -38 80 -38 130c0 110 96 188 221 188c85 0 161 -31 213 -89l-54 -74c-40 34 -85 59 -141 59c-64 0 -105 -36 -105 -94c0 -35 13 -70 37 -120h155v-86
h-129c9 -23 20 -63 20 -88z" />
    <glyph glyph-name="yen.tosf" 
d="M577 710l-184 -329h147v-85h-181v-66h181v-85h-181v-145h-123v145h-180v85h180v66h-180v85h146l-179 329h139l138 -276l143 276h134z" />
    <glyph glyph-name="florin.tosf" 
d="M36 -105h39c36 0 54 13 66 69l76 358h-80v89h99l24 124c22 109 48 175 167 175h79v-98h-56c-48 0 -57 -29 -69 -88l-22 -113h91v-89h-108l-66 -310c-31 -147 -49 -212 -176 -212h-64v95z" />
    <glyph glyph-name="currency" unicode="&#xa4;" horiz-adv-x="577" 
d="M401 337c0 66 -49 112 -113 112c-61 0 -114 -46 -114 -112c0 -67 50 -114 114 -114s113 51 113 114zM36 530l56 60l88 -91c30 20 67 33 108 33c39 0 76 -12 105 -32l89 88l58 -58l-90 -90c22 -29 35 -65 35 -103c0 -40 -13 -77 -34 -107l90 -88l-59 -58l-89 89
c-32 -21 -68 -32 -105 -32c-40 0 -76 12 -107 32c-30 -29 -58 -60 -89 -89l-56 58l88 89c-20 29 -33 66 -33 106c0 37 13 74 33 103z" />
    <glyph glyph-name="apple" horiz-adv-x="2406" 
d="M1677 -97l-17 -8c5 -11 9 -23 9 -37c0 -61 -92 -112 -242 -112c-80 0 -146 21 -190 57c-49 -25 -103 -43 -159 -43c-60 0 -115 15 -148 43c-43 -61 -145 -85 -250 -85c-101 0 -246 56 -241 172c-27 14 -48 36 -55 56c-32 -13 -70 -22 -118 -22c-113 0 -162 98 -138 205
c16 77 87 150 172 189c-23 33 -29 79 -19 122c24 108 98 163 156 163c4 0 8 0 12 -1c41 40 127 56 187 56c51 0 108 -8 155 -26c49 68 135 111 227 111c6 0 13 -1 19 -2c48 66 159 103 289 103c110 0 202 -54 247 -134c53 17 111 23 168 23c69 0 241 -25 274 -115
c16 9 35 15 54 15c77 0 131 -57 115 -125c-5 -25 -10 -34 -20 -49c54 -33 88 -100 68 -189c-8 -31 -19 -58 -34 -80c67 -46 79 -128 64 -196c-22 -98 -123 -124 -206 -124c-22 0 -45 3 -66 8c-19 -24 -67 -46 -127 -46c-58 0 -127 29 -148 88l-28 -12
c13 -82 100 -123 187 -123c54 0 97 10 159 40l1 -2c-47 -25 -100 -42 -159 -42c-92 0 -179 32 -198 122zM692 505c16 0 33 -2 50 -7c2 25 8 50 17 74c-28 8 -60 13 -94 13c-46 0 -96 -8 -149 -29c6 -11 9 -24 9 -39c0 -75 -46 -119 -88 -119c-30 0 -47 28 -39 63
c4 21 19 39 38 54c-9 13 -13 31 -8 50c3 13 9 25 19 35c-3 1 -7 1 -10 1c-57 0 -121 -53 -145 -161c-10 -39 -7 -85 13 -120c38 16 76 27 115 27c30 0 56 -20 51 -43c-4 -23 -25 -35 -74 -35c-43 0 -75 17 -95 44c-77 -40 -134 -113 -150 -181c-27 -117 13 -206 114 -206
c47 0 85 9 117 22c-11 26 -11 54 -3 83c9 39 42 62 67 62c26 0 30 -30 26 -51c-5 -33 -33 -70 -84 -94c6 -20 25 -40 51 -53c0 6 1 13 3 19c14 65 72 113 137 121c0 0 0 -1 1 -1c-61 -8 -109 -57 -123 -120c-2 -9 -3 -17 -4 -26c26 -10 58 -13 90 -4v-1
c-32 -11 -63 -9 -90 0c0 -104 122 -163 226 -163c102 0 209 22 249 84c-23 21 -34 47 -26 80c2 13 8 24 16 34c-7 7 -16 13 -26 18c-65 -51 -138 -95 -200 -95c-47 0 -94 23 -82 75c10 42 84 51 137 51c37 0 84 -5 122 -19c80 60 161 130 262 134c-7 18 -13 39 -16 59
c-20 -16 -41 -23 -62 -23c-34 0 -41 39 -35 71l35 158h-80c-14 -72 -31 -156 -43 -213c-17 -85 -91 -128 -146 -128c-35 0 -74 11 -102 44l2 2c21 -18 37 -30 68 -30c68 0 94 72 104 114c14 54 34 141 50 211h-45c0 2 0 5 1 8h46l17 68c17 80 78 127 140 127
c31 0 101 -7 116 -64c18 9 62 26 99 26c39 0 59 -9 47 -66c-5 -24 -13 -56 -21 -89c79 12 124 63 143 120c-30 7 -61 33 -61 71c0 31 16 61 43 87c-29 37 -73 59 -111 59c-55 0 -86 -32 -86 -69c0 -19 9 -39 27 -50l-3 -2c-18 10 -37 33 -37 52c0 43 37 73 99 73
c39 0 84 -23 113 -60c33 31 82 56 137 72c-42 75 -130 129 -245 129c-119 0 -227 -34 -276 -101c30 -9 61 -33 49 -71c-5 -19 -21 -31 -47 -31c-24 0 -43 26 -35 62c4 14 10 29 18 42c-5 1 -11 1 -17 1c-92 0 -169 -46 -218 -113c46 -20 80 -52 89 -99c2 -9 2 -25 -4 -35
l-2 2c4 9 5 24 3 33c-9 45 -43 76 -88 96c-12 -16 -22 -34 -30 -53c34 -11 103 -38 91 -95c-6 -24 -63 -51 -99 -66c-49 -20 -92 -46 -112 -87c-15 -31 -16 -82 18 -97c7 86 76 129 115 129c47 0 67 -38 46 -74c-22 -36 -57 -51 -98 -59c-2 -43 13 -75 35 -75
c18 0 35 11 46 25c-7 10 -13 17 -10 27c2 9 7 12 19 12c6 0 9 -3 10 -7c1 -6 -1 -12 -3 -16c-3 -5 -5 -10 -9 -14c11 -14 27 -31 22 -57c-7 -31 -46 -55 -98 -55c-43 0 -137 38 -212 73c-19 -11 -43 -18 -70 -18c-35 0 -73 22 -73 62c0 18 15 29 21 29c13 0 34 -19 71 -39
c4 10 9 19 12 26l88 224c26 66 80 85 114 85zM1421 148c40 0 64 35 78 92c8 35 3 54 -6 77l2 1c13 -27 17 -51 10 -82c-15 -66 -47 -102 -116 -102c-47 0 -74 62 -59 126c16 66 72 96 108 96c20 0 34 -5 41 -15c14 9 30 14 49 14h27l15 68c17 79 78 127 140 127
c20 0 44 -2 72 -14l10 -6c13 9 27 14 42 18c-3 8 -3 17 -2 26c3 23 17 37 34 51l3 -1c-15 -17 -21 -34 -24 -50c-2 -8 -1 -17 0 -24c9 1 18 2 26 2c38 0 68 -22 84 -52c33 11 51 37 57 61c4 18 4 34 0 48c-25 -19 -41 -44 -41 -44c0 15 16 35 39 50
c-30 89 -198 116 -269 116c-58 0 -115 -8 -165 -24c20 -39 28 -83 17 -130c-16 -57 -74 -102 -128 -102c-3 0 -8 0 -11 1c-19 -60 -65 -115 -148 -127c-16 -66 -34 -137 -40 -165c-9 -46 -3 -79 35 -79c20 0 24 2 50 16l3 -3c-37 -25 -77 -34 -109 -34c-42 0 -67 30 -53 89
c10 48 31 115 47 174h-118l-36 -160c-3 -16 0 -38 15 -38c5 0 10 2 14 5c0 9 -1 18 -1 27c0 45 16 65 34 65c17 0 18 -16 14 -34c-7 -32 -19 -42 -34 -60c2 -24 8 -48 15 -70c36 -1 53 -9 51 -26c-1 -8 -5 -13 -13 -14c5 1 8 7 9 14c2 15 -14 23 -46 24c7 -20 19 -37 33 -38
c-21 1 -35 16 -43 38c-88 -5 -147 -81 -238 -143c10 -5 19 -10 26 -17c31 36 93 52 147 52c37 0 71 -9 105 -22c2 9 3 19 6 28c13 64 101 104 135 104c13 0 7 -17 16 -29c19 -22 39 -31 69 -31c68 0 95 72 106 114l48 211h-25c-18 0 -33 -6 -43 -13c4 -7 6 -13 6 -20
c0 -11 -8 -18 -18 -18s-16 8 -16 16c0 12 7 20 16 26c-5 5 -10 8 -21 8c-25 0 -46 -33 -61 -97c-13 -56 5 -101 30 -101zM2149 211l3 1c12 -4 22 -9 32 -14c12 22 21 48 28 78c18 82 -5 145 -50 179c-28 -45 -70 -49 -80 -49c-18 0 -46 12 -46 34s23 42 50 42
c24 0 47 -5 68 -17c8 14 14 29 19 50c15 66 -35 117 -104 117c-19 0 -37 -8 -52 -19c5 -16 5 -33 1 -53c-6 -25 -25 -51 -61 -63c11 -22 14 -47 8 -71c-16 -60 -73 -79 -130 -79h-72c-14 -54 -25 -107 -38 -160c-2 -16 1 -38 17 -38c7 0 15 6 22 13c-7 19 -8 41 -2 63
c5 28 23 45 33 45c18 0 13 -26 10 -38c-8 -31 -19 -55 -31 -71c7 -27 23 -49 47 -61c8 45 36 59 63 59c19 0 36 -15 30 -35c-3 -21 -25 -35 -51 -35c-10 0 -18 1 -27 3c0 -39 24 -64 60 -74c14 30 50 52 90 52c9 0 19 -1 28 -5l-1 -2c-10 4 -19 5 -27 5
c-37 0 -70 -22 -83 -52c9 -2 19 -3 29 -3c70 0 124 35 153 98c-15 -4 -36 -6 -51 -6c-76 0 -102 57 -92 103c13 54 57 82 101 82c50 0 87 -47 73 -127c-4 -20 -6 -28 -15 -43c35 13 61 38 81 75c-10 6 -21 11 -33 16zM1745 68l2 -2c-42 -43 -68 -81 -62 -148l28 9
c-13 46 1 95 46 129l3 -3c-48 -34 -55 -89 -45 -123c48 16 106 29 154 29h21c-3 12 -3 25 -1 40c1 5 2 11 4 16c-44 10 -76 39 -74 82c-25 10 -43 30 -54 55c-22 -25 -47 -34 -73 -34c-34 0 -40 39 -34 71c11 53 22 105 34 158h-74l-46 -212c-18 -86 -90 -129 -145 -129
c-35 0 -76 9 -102 44c-11 15 -1 30 -13 30c-37 0 -122 -51 -125 -137c43 -18 85 -43 127 -62c61 38 148 71 205 71c53 0 106 -15 132 -48c7 4 15 8 23 11c-6 63 22 110 69 153zM1998 -101c0 -6 -3 -13 -8 -20c21 -5 44 -8 66 -8c71 0 165 30 189 129c14 62 12 139 -50 186
c-24 -35 -57 -59 -96 -71c-32 -67 -93 -104 -167 -104c-11 0 -21 1 -30 2c-2 -4 -3 -9 -4 -14c-2 -15 -2 -29 1 -41c62 -5 99 -26 99 -59zM755 495c9 -4 20 -15 16 -26c-3 -7 -9 -11 -18 -10c-7 1 -12 14 -11 24v10c-7 2 -16 4 -22 4c-35 0 -62 -42 -76 -81l-70 -220
c-7 -23 -21 -41 -39 -55c71 -35 152 -73 204 -72c75 1 97 53 89 81c-1 7 -8 14 -14 20c-16 -22 -45 -36 -82 -36c-39 0 -68 40 -66 91c-38 12 -46 65 -30 100c21 41 73 71 122 88c35 12 82 41 88 65c13 54 -39 79 -79 91c-10 -23 -17 -47 -20 -71zM948 -159
c-3 -11 -8 -22 -14 -32c3 -3 6 -7 10 -10c32 -27 87 -36 134 -36c58 0 102 22 144 51c-34 36 -52 82 -49 134c-34 13 -69 22 -105 22c-56 0 -110 -20 -135 -61c11 -13 17 -29 17 -48c0 -6 0 -12 -2 -20zM1918 492c-36 0 -72 22 -83 52c-13 -3 -25 -9 -36 -19
c10 -7 15 -18 15 -26c0 -11 -8 -19 -22 -19c-16 0 -23 9 -23 18c0 6 2 11 6 15c3 6 9 9 13 13c-33 17 -51 15 -63 15c-36 0 -71 -39 -83 -95l-20 -91h17c62 0 125 42 131 76c-1 8 0 22 9 22c6 0 12 -8 9 -15c-2 -9 -4 -19 -8 -28c-6 -19 -13 -37 -16 -55h67
c43 0 101 15 118 72c6 21 4 46 -4 67c-8 -1 -17 -2 -27 -2zM1134 531c-30 10 -40 10 -51 10c-37 0 -75 -39 -88 -95l-19 -91h19c55 0 122 29 146 91h2l-21 -91h119c9 31 17 59 22 79c11 41 -14 61 -42 61c-14 0 -25 -6 -34 -12l-4 -1c1 -3 2 -7 2 -11c0 -11 -2 -20 -14 -20
c-7 0 -14 7 -10 17c3 7 9 12 18 16c-7 23 -27 39 -45 47zM1656 -142c0 12 -3 23 -7 33c-58 -27 -121 -51 -186 -51c-44 0 -83 12 -121 28c-29 -20 -63 -42 -100 -62c42 -36 105 -58 185 -58c147 0 229 50 229 110zM1589 577c10 46 3 91 -16 129c-54 -18 -101 -45 -131 -78
c15 -23 24 -49 24 -79c0 -23 -4 -48 -11 -71c3 -1 6 -1 9 -1c51 0 112 44 125 100zM2100 160c20 87 -19 128 -57 128c-49 0 -78 -46 -80 -95c-2 -30 6 -67 39 -81c9 -3 19 -5 32 -5c17 0 37 2 53 7c7 15 10 24 13 46zM1871 -42c-54 0 -106 -17 -152 -37
c20 -58 87 -88 144 -88c55 0 98 24 112 49c-40 12 -73 36 -82 76h-22zM1521 -50c-26 0 -50 -7 -75 -18c-34 -16 -68 -39 -102 -62c38 -16 77 -29 119 -29c59 0 105 23 155 47l25 12c-21 34 -69 50 -122 50zM693 -157c53 0 110 51 175 104c-38 13 -83 18 -120 18
c-49 0 -114 -12 -126 -51c-12 -44 26 -71 71 -71zM640 655c-64 0 -141 -17 -178 -55c23 -6 42 -19 53 -41c51 19 105 27 150 27c34 0 67 -4 95 -12c7 20 17 38 29 55c-46 19 -101 26 -149 26zM521 517c0 15 -3 27 -8 38l-7 -3c-20 -9 -43 -21 -62 -37c6 -12 18 -19 36 -18
c1 -1 1 -2 1 -2c-18 -2 -32 5 -42 16c-15 -14 -27 -30 -31 -50c-7 -34 3 -61 29 -61c37 0 84 48 84 117zM420 345c-40 0 -77 -11 -113 -28c17 -27 47 -47 90 -47c46 0 65 12 70 34c4 23 -18 41 -47 41zM389 29c-5 -28 -7 -53 -1 -77c48 24 74 59 80 90c2 15 4 49 -21 49
c-18 0 -49 -22 -58 -62zM1229 -180c28 17 55 43 85 59l-54 27c-25 13 -47 25 -71 35c-4 -45 11 -88 40 -121zM795 346c-22 0 -39 -24 -54 -68c-4 -14 -9 -32 -11 -47c40 9 75 24 92 58c4 7 6 14 6 21c0 19 -12 36 -33 36zM1462 549c0 29 -9 55 -23 76
c-20 -23 -32 -49 -32 -77c0 -36 19 -62 44 -69c7 23 11 47 11 70zM2082 408c10 0 44 11 69 54c-18 12 -41 18 -65 18s-45 -18 -45 -40s25 -32 41 -32zM1095 668c12 34 -17 59 -47 68c-9 -13 -16 -26 -20 -42c-9 -38 10 -54 24 -54c24 0 38 10 43 28zM1863 91
c21 0 36 8 43 33c3 11 -3 32 -22 32c-28 0 -44 -23 -48 -62c8 -2 17 -3 27 -3zM392 177c0 -19 15 -48 38 -48c19 0 33 17 43 34l-54 29c-8 5 -12 6 -16 6c-3 0 -11 -5 -11 -21zM1918 494c9 0 18 1 26 3c-12 29 -36 52 -73 52c-8 0 -17 -1 -25 -2c8 -30 38 -53 72 -53z
M443 565c-5 -18 -5 -33 -1 -45c20 15 43 26 62 34l8 3c-11 22 -30 36 -51 41c-9 -9 -15 -21 -18 -33zM1980 -101c0 32 -29 52 -80 58c9 -37 39 -60 76 -73c3 5 4 10 4 15zM1771 170c3 4 6 9 8 14c13 22 20 49 20 48c2 6 10 37 -4 37c-8 0 -17 -18 -24 -44
c-4 -18 -4 -37 0 -55zM921 -121c-8 -28 -2 -51 12 -68c8 14 13 31 13 50c0 18 -6 32 -15 45c-5 -8 -8 -17 -10 -27zM1126 164c14 15 24 27 28 48c3 15 6 32 -7 32c-11 0 -22 -19 -22 -63c0 -5 0 -12 1 -17zM1782 498c0 -8 4 -16 10 -16c11 0 18 7 18 17s-5 19 -15 23
c-6 -6 -13 -14 -13 -24zM752 491c-2 0 -3 0 -6 1v-9c-1 -11 2 -22 8 -23c5 0 10 4 12 9c5 11 -6 17 -14 22zM1480 332c-6 -3 -13 -12 -13 -21c0 -7 3 -11 8 -11c8 0 11 7 11 14s-3 14 -6 18zM823 191c1 3 2 6 2 9c1 6 -1 11 -6 11s-10 -9 -11 -13c-1 -8 2 -14 6 -19z
M1180 471v9c-8 -3 -13 -9 -15 -13c-3 -8 1 -14 6 -14c9 0 9 8 9 18z" />
    <glyph glyph-name="arrowright" unicode="&#x2192;" horiz-adv-x="500" 
d="M0 212v99h329l-92 92l66 60l197 -201v-1l-199 -201l-65 60l93 92h-329z" />
    <glyph glyph-name="arrowleft" unicode="&#x2190;" horiz-adv-x="500" 
d="M500 311v-99h-329l93 -92l-65 -60l-199 201v1l197 201l66 -60l-92 -92h329z" />
    <glyph glyph-name="arroewup" horiz-adv-x="500" 
d="M299 11h-98v335l-93 -91l-60 58l203 198l200 -199l-60 -58l-92 93v-336z" />
    <glyph glyph-name="arrowdown" unicode="&#x2193;" horiz-adv-x="500" 
d="M201 511h98v-336l92 93l60 -58l-200 -199l-203 198l60 58l93 -91v335z" />
    <glyph glyph-name="arrowNW" horiz-adv-x="500" 
d="M448 123l-67 -69l-235 237v-122h-90v268h282v-81h-125z" />
    <glyph glyph-name="arrowNE" horiz-adv-x="500" 
d="M119 54l-67 69l235 233h-125v81h282v-268h-90v122z" />
    <glyph glyph-name="arrowSE" horiz-adv-x="500" 
d="M54 363l67 69l235 -237v122h90v-268h-282v81h125z" />
    <glyph glyph-name="arrowSW" horiz-adv-x="500" 
d="M379 432l67 -69l-235 -233h125v-81h-282v268h90v-122z" />
    <glyph glyph-name="arrowLeftRight" horiz-adv-x="1000" 
d="M173 212l92 -92l-66 -60l-199 202l197 201l66 -60l-92 -92h655l-92 92l69 63l194 -204l-199 -202l-66 60l93 92h-652z" />
    <glyph glyph-name="arrowUpDown" horiz-adv-x="750" 
d="M426 -106l92 93l60 -67l-202 -198l-201 196l60 67l92 -92v655l-92 -93l-63 69l205 195l201 -199l-60 -67l-92 93v-652z" />
    <glyph glyph-name="arrowright.750" horiz-adv-x="750" 
d="M1 211v100h578l-93 92l67 59l197 -200l-199 -202l-64 60l92 91h-578z" />
    <glyph glyph-name="arrowup.750" horiz-adv-x="750" 
d="M424 -107h-98v584l-93 -91l-60 58l203 198l200 -199l-60 -58l-92 93v-585z" />
    <glyph glyph-name="arrowleft.750" horiz-adv-x="750" 
d="M749 311v-100h-578l92 -91l-64 -60l-199 202l197 200l67 -59l-93 -92h578z" />
    <glyph glyph-name="arrowdown.750" horiz-adv-x="750" 
d="M326 629h98v-585l92 93l60 -58l-200 -199l-203 198l60 58l93 -91v584z" />
    <glyph glyph-name="arrowNW.750" horiz-adv-x="750" 
d="M663 30l-69 -70l-405 403v-129h-92v289h285v-83h-131z" />
    <glyph glyph-name="arrowNE.750" horiz-adv-x="750" 
d="M155 -45l-69 70l412 410h-131v83h285v-289h-92v129z" />
    <glyph glyph-name="arrowSE.750" horiz-adv-x="750" 
d="M86 493l69 70l405 -403v129h92v-289h-285v83h131z" />
    <glyph glyph-name="arrowSW.750" horiz-adv-x="750" 
d="M594 563l69 -70l-412 -410h131v-83h-285v289h92v-129z" />
    <glyph glyph-name="arrowCircleLeft" horiz-adv-x="750" 
d="M214 306c0 131 83 218 237 218c148 0 231 -84 231 -224h-97c-2 83 -33 145 -134 145c-96 0 -139 -52 -139 -145v-113l92 93l60 -58l-201 -199l-202 197l60 60l93 -92v118z" />
    <glyph glyph-name="arrowCircleRight" horiz-adv-x="750" 
d="M535 310v-122l93 92l60 -60l-202 -197l-201 199l60 58l92 -93v113c0 93 -43 145 -139 145c-101 0 -132 -62 -134 -145h-97c0 140 83 224 242 224c157 0 226 -83 226 -214z" />
    <glyph glyph-name="arrowDubLeft" horiz-adv-x="750" 
d="M318 412l-53 -53h410v-69h-477l-26 -26l25 -25h478v-69h-411l51 -52l-67 -62l-201 205l204 210z" />
    <glyph glyph-name="arrowDubTop" horiz-adv-x="750" 
d="M543 357l-53 53v-410h-69v478l-26 25l-26 -26v-477h-68v410l-51 -50l-63 67l207 201l209 -204z" />
    <glyph glyph-name="arrowDubRight" horiz-adv-x="750" 
d="M485 359l-53 53l67 59l204 -210l-201 -205l-67 62l51 52h-411v69h478l25 25l-26 26h-477v69h410z" />
    <glyph glyph-name="arrowDubDown" horiz-adv-x="750" 
d="M490 205l53 53l60 -67l-209 -204l-207 201l63 67l51 -50v410h68v-477l26 -26l26 25v478h69v-410z" />
    <glyph glyph-name="triangleBlackLeft" horiz-adv-x="610" 
d="M548 22l-486 236l486 232v-468z" />
    <glyph glyph-name="triangleBlackRight" horiz-adv-x="610" 
d="M548 258l-486 -236v468z" />
    <glyph glyph-name="triangleWhiteLeft" horiz-adv-x="610" 
d="M487 117l1 280l-285 -137v0zM548 490v-465l-486 234v2z" />
    <glyph glyph-name="triangleWhiteRight" horiz-adv-x="610" 
d="M122 397l1 -280l284 143v0zM62 25v465l486 -229v-2z" />
    <glyph glyph-name="square" horiz-adv-x="610" 
d="M479 151h-349v349h349v-349z" />
    <glyph glyph-name="square.open" horiz-adv-x="610" 
d="M434 196v259h-259v-259h259zM479 151h-349v349h349v-349z" />
    <glyph glyph-name="circle" unicode="&#x25cb;" horiz-adv-x="610" 
d="M305 119c-113 0 -205 92 -205 205s92 205 205 205s205 -92 205 -205s-92 -205 -205 -205z" />
    <glyph glyph-name="circle.open" horiz-adv-x="610" 
d="M305 119c-113 0 -205 92 -205 205s92 205 205 205s205 -92 205 -205s-92 -205 -205 -205zM305 167c85 0 151 74 151 160c0 85 -66 153 -151 153c-86 0 -150 -71 -150 -156c0 -86 64 -157 150 -157z" />
    <glyph glyph-name="triangle.left" horiz-adv-x="425" 
d="M275 203l-185 117l185 114v-231z" />
    <glyph glyph-name="triangle" unicode="&#x25b3;" horiz-adv-x="425" 
d="M335 320l-185 -117v231z" />
    <glyph glyph-name="raute" horiz-adv-x="610" 
d="M514 325l-210 -209l-209 210l210 209z" />
    <glyph glyph-name="circumflex" unicode="&#x2c6;" horiz-adv-x="500" 
d="M211 761h79l111 -144l-58 -41l-91 89l-91 -89l-61 40z" />
    <glyph glyph-name="caron" unicode="&#x2c7;" horiz-adv-x="500" 
d="M290 581h-79l-108 142l59 44l90 -90l91 89l58 -41z" />
    <glyph glyph-name="uni02C9" unicode="&#x2c9;" horiz-adv-x="500" 
d="M109 608v89h283v-89h-283z" />
    <glyph glyph-name="breve" unicode="&#x2d8;" horiz-adv-x="500" 
d="M250 668c57 0 72 35 77 70l80 -13c-8 -88 -57 -134 -157 -134s-146 42 -159 134l81 14c11 -44 26 -71 78 -71z" />
    <glyph glyph-name="dieresis" unicode="&#xa8;" horiz-adv-x="500" 
d="M81 656c0 35 26 62 69 62c47 0 70 -27 70 -62c0 -36 -28 -61 -70 -61c-44 0 -69 24 -69 61zM285 656c0 35 26 62 69 62c47 0 70 -27 70 -62c0 -36 -28 -61 -70 -61c-44 0 -69 24 -69 61z" />
    <glyph glyph-name="macron" unicode="&#xaf;" horiz-adv-x="500" 
d="M109 608v89h283v-89h-283z" />
    <glyph glyph-name="degree" unicode="&#xb0;" horiz-adv-x="323" 
d="M100 665c0 -40 24 -68 63 -68c36 0 62 29 62 68s-25 66 -62 66c-39 0 -63 -27 -63 -66zM40 664c0 69 56 121 123 121c66 0 120 -52 120 -121c0 -68 -53 -120 -120 -120c-71 0 -123 50 -123 120z" />
    <glyph glyph-name="acute" unicode="&#xb4;" horiz-adv-x="500" 
d="M132 645l156 143l69 -83l-166 -126z" />
    <glyph glyph-name="grave" unicode="`" horiz-adv-x="500" 
d="M214 788l156 -143l-59 -66l-166 126z" />
    <glyph glyph-name="cedilla" unicode="&#xb8;" horiz-adv-x="500" 
d="M156 -205l15 57c17 -6 33 -10 57 -10c26 0 41 11 41 30c0 20 -15 31 -59 31h-18l23 105h64l-12 -60c39 -5 87 -16 87 -77c0 -62 -47 -92 -111 -92c-40 0 -74 10 -87 16z" />
    <glyph glyph-name="dotaccent" unicode="&#x2d9;" horiz-adv-x="500" 
d="M170 663c0 44 35 68 80 68c46 0 79 -24 79 -68c0 -42 -33 -66 -79 -66c-44 0 -80 24 -80 66z" />
    <glyph glyph-name="ring" unicode="&#x2da;" horiz-adv-x="500" 
d="M209 668c0 -27 15 -39 42 -39c25 0 40 15 40 41s-14 39 -40 39c-27 0 -42 -15 -42 -41zM149 666c0 59 44 97 102 97c56 0 100 -35 100 -93s-44 -95 -100 -95c-61 0 -102 33 -102 91z" />
    <glyph glyph-name="ogonek" unicode="&#x2db;" horiz-adv-x="500" 
d="M250 15l77 -6v-9c-41 -39 -79 -84 -79 -117c0 -21 9 -32 29 -32c19 0 34 3 55 12l19 -64c-24 -14 -66 -30 -110 -30c-69 0 -97 31 -97 79c0 63 43 117 106 167z" />
    <glyph glyph-name="tilde" unicode="&#x2dc;" horiz-adv-x="500" 
d="M352 717l62 -23c-13 -61 -42 -100 -94 -100c-46 0 -99 33 -126 33c-17 0 -27 -8 -41 -37l-63 24c20 63 50 100 93 100c49 0 94 -34 129 -34c18 0 26 6 40 37z" />
    <glyph glyph-name="hungarumlaut" unicode="&#x2dd;" horiz-adv-x="500" 
d="M163 780l82 -49l-112 -150l-68 41zM318 767l81 -50l-112 -136l-66 41z" />
    <glyph glyph-name="commaaccent" horiz-adv-x="500" 
d="M178 -233l40 176l110 -27l-62 -173z" />
    <glyph glyph-name="revcommaaccent" horiz-adv-x="500" 
d="M309 756l-40 -176l-110 27l62 173z" />
    <glyph glyph-name="tilde.cap" horiz-adv-x="500" 
d="M352 900l62 -23c-13 -61 -42 -100 -94 -100c-46 0 -99 33 -126 33c-17 0 -27 -8 -41 -37l-63 24c20 63 50 100 93 100c49 0 94 -34 129 -34c18 0 26 6 40 37z" />
    <glyph glyph-name="ring.cap" horiz-adv-x="500" 
d="M209 835c0 -27 15 -39 42 -39c25 0 40 15 40 41s-14 39 -40 39c-27 0 -42 -15 -42 -41zM149 833c0 59 44 97 102 97c56 0 100 -35 100 -93s-44 -95 -100 -95c-61 0 -102 33 -102 91z" />
    <glyph glyph-name="circumflex.cap" horiz-adv-x="500" 
d="M211 923h79l109 -113l-58 -49l-88 66l-87 -66l-60 50z" />
    <glyph glyph-name="acute.cap" horiz-adv-x="500" 
d="M129 827l178 107l54 -97l-187 -87z" />
    <glyph glyph-name="grave.cap" horiz-adv-x="500" 
d="M191 934l178 -107l-45 -77l-187 87z" />
    <glyph glyph-name="dieresis.cap" horiz-adv-x="500" 
d="M81 833c0 35 26 62 69 62c47 0 70 -27 70 -62c0 -36 -28 -61 -70 -61c-44 0 -69 24 -69 61zM285 833c0 35 26 62 69 62c47 0 70 -27 70 -62c0 -36 -28 -61 -70 -61c-44 0 -69 24 -69 61z" />
    <glyph glyph-name="caron.cap" horiz-adv-x="500" 
d="M290 761h-79l-105 112l60 50l87 -66l88 66l58 -49z" />
    <glyph glyph-name="macron.cap" horiz-adv-x="500" 
d="M109 784v89h283v-89h-283z" />
    <glyph glyph-name="dotaccent.cap" horiz-adv-x="500" 
d="M170 837c0 44 35 68 80 68c46 0 79 -24 79 -68c0 -43 -33 -67 -79 -67c-44 0 -80 24 -80 67z" />
    <glyph glyph-name="cedilla.cap" horiz-adv-x="500" 
d="M156 -205l15 57c17 -6 33 -10 57 -10c26 0 41 11 41 30c0 20 -15 31 -59 31h-18l23 105h64l-12 -60c39 -5 87 -16 87 -77c0 -62 -47 -92 -111 -92c-40 0 -74 10 -87 16z" />
    <glyph glyph-name="hungarumlaut.cap" horiz-adv-x="500" 
d="M189 960l81 -63l-132 -146l-65 51zM357 945l76 -68l-132 -127l-61 56z" />
    <glyph glyph-name="apostrophe" unicode="&#x2bc;" horiz-adv-x="500" 
d="M169 678c0 32 23 54 55 54c43 0 62 -34 62 -73c0 -59 -23 -99 -93 -124l-18 33c38 17 53 39 54 69c-5 -3 -10 -3 -16 -3c-25 0 -44 19 -44 44z" />
    <glyph glyph-name="commaaccent.cap" horiz-adv-x="500" 
d="M178 -233l40 176l110 -27l-62 -173z" />
    <glyph glyph-name="breve.cap" horiz-adv-x="500" 
d="M250 843c57 0 72 28 77 63l80 -13c-9 -84 -57 -127 -157 -127s-146 38 -159 127l83 14c7 -40 24 -64 76 -64z" />
    <glyph glyph-name="caron.alt" horiz-adv-x="500" 
d="M177 522l31 198h121l-54 -198h-98z" />
    <glyph glyph-name="ogonek.cap" horiz-adv-x="500" 
d="M250 15l77 -6v-9c-41 -39 -79 -84 -79 -117c0 -21 9 -32 29 -32c19 0 34 3 55 12l19 -64c-24 -14 -66 -30 -110 -30c-69 0 -97 31 -97 79c0 63 43 117 106 167z" />
    <glyph glyph-name="uni00A0" unicode="&#xa0;" horiz-adv-x="205" 
 />
    <glyph glyph-name=".null" horiz-adv-x="0" 
 />
    <glyph glyph-name="CR" horiz-adv-x="0" 
 />
    </font>
</defs>
</svg>
