<?xml version="1.0" standalone="no"?>
<!DOCTYPE svg PUBLIC "-//W3C//DTD SVG 1.1//EN" "http://www.w3.org/Graphics/SVG/1.1/DTD/svg11.dtd" >
<svg xmlns="http://www.w3.org/2000/svg" xmlns:xlink="http://www.w3.org/1999/xlink" version="1.1">
<metadata>
Created by FontForge 20190801 at Thu Sep 23 20:52:07 2010
 By Jimmy Wärting
Copyright (c) 2010 by Leftloft. All rights reserved.
</metadata>
<defs>
<font id="LFTEtica-Bold" horiz-adv-x="600" >
  <font-face 
    font-family="LFT Etica"
    font-weight="700"
    font-stretch="normal"
    units-per-em="1000"
    panose-1="2 0 8 3 4 0 0 2 0 4"
    ascent="730"
    descent="-270"
    x-height="529"
    cap-height="720"
    bbox="-222 -282 2267.75 965"
    underline-thickness="50"
    underline-position="-100"
    stemh="160"
    stemv="177"
    unicode-range="U+0020-FB04"
  />
<missing-glyph horiz-adv-x="167" 
 />
    <glyph glyph-name="ff" unicode="ff" horiz-adv-x="650" 
d="M392 0v406h-142v-406h-170v406h-69v97l69 17v31c0 107 52 169 167 169c39 0 71 -5 103 -13l-10 -109c-15 4 -31 7 -46 7c-28 0 -44 -15 -44 -48v-28h142v34c0 107 52 169 167 169c39 0 69 -4 101 -12l-8 -110c-15 4 -31 7 -46 7c-28 0 -44 -15 -44 -48v-40h87v-123h-87
v-406h-170z" />
    <glyph glyph-name="fi" unicode="fi" horiz-adv-x="614" 
d="M561 529v-529h-170v406h-141v-406h-170v406h-69v97l69 17v43c0 107 49 169 164 169c31 0 56 -4 78 -9v-110c-9 2 -22 3 -29 3c-27 0 -43 -13 -43 -47v-40h311zM381 660c0 55 43 83 98 83c58 0 99 -28 99 -83c0 -52 -41 -80 -99 -80c-54 0 -98 28 -98 80z" />
    <glyph glyph-name="fl" unicode="fl" horiz-adv-x="611" 
d="M562 0h-170v406h-142v-406h-170v406h-69v97l69 17v43c0 107 49 169 164 169c31 0 56 -4 78 -9v-110c-9 2 -22 3 -29 3c-27 0 -43 -13 -43 -47v-40h142v191h170v-720z" />
    <glyph glyph-name="ft" unicode="ft" horiz-adv-x="667" 
d="M647 406h-86v-254c0 -27 10 -37 34 -37c15 0 29 3 43 7l15 -114c-42 -14 -82 -21 -127 -21c-94 0 -135 51 -135 133v286h-141v-406h-170v406h-69v97l69 17v43c0 107 49 169 164 169c31 0 56 -4 78 -9v-110c-9 2 -22 3 -29 3c-27 0 -43 -13 -43 -47v-40h144l16 157h150
v-157h87v-123z" />
    <glyph glyph-name="tt" unicode="tt" horiz-adv-x="666" 
d="M646 406h-86v-254c0 -27 11 -37 35 -37c15 0 29 3 43 7l15 -114c-42 -14 -82 -21 -127 -21c-94 0 -135 51 -135 133v286h-139v-254c0 -27 11 -37 35 -37c15 0 29 3 43 7l15 -114c-42 -14 -82 -21 -127 -21c-94 0 -135 51 -135 133v286h-72v96l75 26l16 158h150v-157h142
l16 157h150v-157h86v-123z" />
    <glyph glyph-name="ffi" unicode="ffi" horiz-adv-x="925" 
d="M391 0v406h-141v-406h-170v406h-69v97l69 17v31c0 107 52 169 167 169c39 0 71 -5 103 -13l-10 -109c-15 4 -31 7 -46 7c-28 0 -44 -15 -44 -48v-28h141v34c0 107 49 169 164 169c31 0 56 -4 78 -9v-110c-9 2 -22 3 -29 3c-27 0 -43 -13 -43 -47v-40h311v-529h-170v406
h-141v-406h-170zM692 660c0 55 43 83 98 83c58 0 99 -28 99 -83c0 -52 -41 -80 -99 -80c-54 0 -98 28 -98 80z" />
    <glyph glyph-name="ffl" unicode="ffl" horiz-adv-x="923" 
d="M392 0v406h-142v-406h-170v406h-69v97l69 17v31c0 107 52 169 167 169c39 0 71 -5 103 -13l-10 -109c-15 4 -31 7 -46 7c-28 0 -44 -15 -44 -48v-28h142v34c0 107 49 169 164 169c31 0 56 -4 78 -9v-110c-9 2 -22 3 -29 3c-27 0 -43 -13 -43 -47v-40h142v191h170v-720
h-170v406h-142v-406h-170z" />
    <glyph glyph-name="fft" unicode="fft" horiz-adv-x="976" 
d="M955 406h-85v-254c0 -27 10 -37 34 -37c15 0 29 3 43 7l15 -114c-42 -14 -82 -21 -127 -21c-94 0 -135 51 -135 133v286h-141v-406h-170v406h-139v-406h-170v406h-69v97l69 17v31c0 107 52 169 167 169c39 0 71 -5 103 -13l-10 -109c-15 4 -31 7 -46 7
c-28 0 -44 -15 -44 -48v-28h139v34c0 107 49 169 164 169c31 0 56 -4 78 -9v-110c-9 2 -22 3 -29 3c-27 0 -43 -13 -43 -47v-40h144l16 157h150v-157h86v-123z" />
    <glyph glyph-name=".notdef" horiz-adv-x="167" 
 />
    <glyph glyph-name=".notdef" horiz-adv-x="167" 
 />
    <glyph glyph-name="space" unicode=" " horiz-adv-x="205" 
 />
    <glyph glyph-name="quotesingle" unicode="'" horiz-adv-x="203" 
d="M154 720v-292h-105v292h105z" />
    <glyph glyph-name="quotedbl" unicode="&#x22;" horiz-adv-x="369" 
d="M320 720v-292h-106v292h106zM154 720v-292h-105v292h105z" />
    <glyph glyph-name="numbersign" unicode="#" horiz-adv-x="702" 
d="M305 374l-34 -106h116l37 106h-119zM668 374h-137l-36 -106h112v-104h-146l-59 -159l-100 22l50 137h-116l-59 -159l-99 22l49 137h-91v104h127l36 106h-102v104h137l61 172l101 -22l-53 -150h116l62 169l100 -19l-53 -150h100v-104z" />
    <glyph glyph-name="ampersand" unicode="&#x26;" horiz-adv-x="753" 
d="M297 570c0 -29 18 -57 50 -89c42 27 63 52 63 85c0 31 -20 53 -56 53c-40 0 -57 -24 -57 -49zM314 123c43 0 85 23 116 54l-135 157c-47 -25 -79 -63 -79 -119c0 -50 34 -92 98 -92zM599 -10l-82 86c-70 -63 -133 -89 -230 -89c-136 0 -229 82 -229 211
c0 104 57 172 149 221c-39 42 -62 80 -62 141c0 89 75 171 205 171c110 0 197 -55 197 -160c0 -82 -55 -133 -112 -167l63 -75l96 96l97 -94l-103 -103l129 -139z" />
    <glyph glyph-name="ampersand.alt" horiz-adv-x="753" 
d="M599 -10l-82 86c-70 -63 -133 -89 -230 -89c-136 0 -229 82 -229 211c0 104 51 168 143 217c-39 42 -65 82 -65 143c0 89 72 173 220 173c114 0 199 -42 199 -176v-31h-142v22c0 56 -21 74 -59 74s-56 -20 -56 -48c0 -26 12 -47 57 -94l131 -135l96 96l97 -94l-103 -103
l141 -153zM314 123c43 0 85 23 116 54l-141 153c-47 -25 -73 -59 -73 -115c0 -50 34 -92 98 -92z" />
    <glyph glyph-name="asterisk" unicode="*" horiz-adv-x="474" 
d="M326 371l-92 90l-93 -90l-62 46l67 99l-103 44l30 71l107 -23l18 113h72l18 -113l117 24l26 -72l-109 -44l64 -99z" />
    <glyph glyph-name="comma" unicode="," horiz-adv-x="253" 
d="M27 73c0 45 35 83 90 83c71 0 101 -47 101 -116c0 -94 -57 -174 -167 -210l-26 60c70 31 92 67 95 108c-58 -14 -93 23 -93 75z" />
    <glyph glyph-name="hyphen" unicode="-" horiz-adv-x="322" 
d="M26 211v133h269v-133h-269z" />
    <glyph glyph-name="period" unicode="." horiz-adv-x="254" 
d="M35 69c0 54 32 88 92 88c57 0 92 -34 92 -84s-35 -86 -92 -86c-61 0 -92 36 -92 82z" />
    <glyph glyph-name="colon" unicode=":" horiz-adv-x="254" 
d="M35 69c0 54 32 88 92 88c57 0 92 -34 92 -84s-35 -86 -92 -86c-61 0 -92 36 -92 82zM35 430c0 54 32 88 92 88c57 0 92 -34 92 -84s-35 -86 -92 -86c-61 0 -92 36 -92 82z" />
    <glyph glyph-name="semicolon" unicode=";" horiz-adv-x="253" 
d="M27 73c0 45 35 83 90 83c71 0 101 -47 101 -116c0 -94 -57 -174 -167 -210l-26 60c70 31 92 67 95 108c-58 -14 -93 23 -93 75zM29 430c0 54 32 88 92 88c57 0 92 -34 92 -84s-35 -86 -92 -86c-61 0 -92 36 -92 82z" />
    <glyph glyph-name="question" unicode="?" horiz-adv-x="563" 
d="M208 223v37c0 128 146 172 146 263c0 47 -32 65 -74 65c-45 0 -87 -27 -87 -91h-157c0 169 115 235 254 235c120 0 234 -58 234 -194c0 -150 -163 -199 -163 -297v-18h-153zM192 69c0 54 32 88 92 88c57 0 92 -34 92 -84s-35 -86 -92 -86c-61 0 -92 36 -92 82z" />
    <glyph glyph-name="exclam" unicode="!" horiz-adv-x="324" 
d="M94 223l-15 262v235h171v-235l-15 -262h-141zM70 69c0 54 32 88 92 88c57 0 92 -34 92 -84s-35 -86 -92 -86c-61 0 -92 36 -92 82z" />
    <glyph glyph-name="exclamdown" unicode="&#xa1;" horiz-adv-x="324" 
d="M79 43l15 262h141l15 -262v-235h-171v235zM70 459c0 46 31 82 92 82c57 0 92 -36 92 -86s-35 -84 -92 -84c-60 0 -92 34 -92 88z" />
    <glyph glyph-name="questiondown" unicode="&#xbf;" horiz-adv-x="563" 
d="M358 305v-37c0 -128 -146 -172 -146 -263c0 -47 32 -65 74 -65c45 0 87 27 87 91h157c0 -169 -115 -235 -254 -235c-120 0 -234 58 -234 194c0 150 163 199 163 297v18h153zM374 459c0 -54 -32 -88 -92 -88c-57 0 -92 34 -92 84s35 86 92 86c61 0 92 -36 92 -82z" />
    <glyph glyph-name="at" unicode="@" horiz-adv-x="980" 
d="M544 191l42 160c-15 8 -34 12 -55 12c-100 0 -159 -97 -159 -188c0 -52 20 -89 69 -89c48 0 88 49 103 105zM692 398l-54 -224c-8 -32 -20 -81 36 -81c93 0 149 123 149 213c0 170 -129 258 -293 258c-213 0 -360 -160 -360 -372c0 -195 132 -312 325 -312
c102 0 205 27 290 91l42 -67c-92 -72 -229 -106 -342 -106c-238 0 -415 144 -415 395c0 266 204 457 463 457c225 0 382 -136 382 -340c0 -190 -134 -303 -256 -303c-68 0 -104 31 -113 77c-33 -45 -72 -75 -138 -75c-83 0 -134 56 -134 160c0 147 104 271 261 271
c68 0 111 -16 157 -42z" />
    <glyph glyph-name="A" unicode="A" horiz-adv-x="700" 
d="M261 720h177l257 -720h-190l-40 132h-230l-40 -132h-190zM281 281h137l-69 237z" />
    <glyph glyph-name="B" unicode="B" horiz-adv-x="659" 
d="M339 575h-106v-138h93c61 0 90 31 90 72c0 39 -25 66 -77 66zM233 304v-155h123c56 0 89 28 89 78c0 49 -33 77 -89 77h-123zM56 0v720h281c173 0 260 -52 260 -176c0 -74 -41 -137 -120 -161v-2c106 -19 148 -98 148 -162c0 -176 -143 -219 -319 -219h-250z" />
    <glyph glyph-name="C" unicode="C" horiz-adv-x="679" 
d="M579 224l79 -120c-86 -76 -183 -117 -295 -117c-218 0 -327 152 -327 371c0 216 116 374 333 374c158 0 280 -86 290 -272h-178c-7 57 -28 112 -109 112c-90 0 -147 -71 -147 -213c0 -144 60 -212 157 -212c81 0 141 33 197 77z" />
    <glyph glyph-name="D" unicode="D" horiz-adv-x="713" 
d="M317 564h-84v-409h84c120 0 175 68 175 205c0 133 -55 204 -175 204zM56 720h261c240 0 360 -142 360 -348c0 -259 -125 -372 -387 -372h-234v720z" />
    <glyph glyph-name="E" unicode="E" horiz-adv-x="594" 
d="M56 0v720h499v-156h-322v-129h292v-146h-292v-134h326v-155h-503z" />
    <glyph glyph-name="F" unicode="F" horiz-adv-x="566" 
d="M56 0v720h483v-156h-306v-148h269v-144h-269v-272h-177z" />
    <glyph glyph-name="G" unicode="G" horiz-adv-x="711" 
d="M393 264v133h274v-298c-84 -89 -195 -112 -293 -112c-256 0 -338 174 -338 370c0 218 105 375 337 375c204 0 282 -108 294 -251h-183c-6 51 -33 92 -108 92c-100 0 -154 -79 -154 -213s50 -217 168 -217c42 0 77 8 106 29v92h-103z" />
    <glyph glyph-name="H" unicode="H" horiz-adv-x="713" 
d="M56 0v720h177v-283h247v283h177v-720h-177v277h-247v-277h-177z" />
    <glyph glyph-name="I" unicode="I" horiz-adv-x="289" 
d="M56 0v720h177v-720h-177z" />
    <glyph glyph-name="J" unicode="J" horiz-adv-x="419" 
d="M368 720v-519c0 -146 -67 -214 -200 -214c-54 0 -114 7 -151 21l12 141c23 -5 56 -11 87 -11c57 0 75 21 75 88v494h177z" />
    <glyph glyph-name="J.alt" horiz-adv-x="419" 
d="M368 720v-488c0 -141 -51 -232 -273 -232h-80v151h58c100 0 118 21 118 96v473h177z" />
    <glyph glyph-name="K" unicode="K" horiz-adv-x="683" 
d="M56 0v720h177v-285h77l152 285h196l-197 -355l218 -365h-204l-168 290h-74v-290h-177z" />
    <glyph glyph-name="L" unicode="L" horiz-adv-x="556" 
d="M56 720h177v-565h299v-155h-476v720z" />
    <glyph glyph-name="M" unicode="M" horiz-adv-x="872" 
d="M839 0h-166l-38 416l-127 -416h-140l-128 417l-39 -417h-168l69 720h184l151 -475l157 475h176z" />
    <glyph glyph-name="N" unicode="N" horiz-adv-x="720" 
d="M56 0v720h154l279 -423v423h175v-720h-153l-281 414v-414h-174z" />
    <glyph glyph-name="O" unicode="O" horiz-adv-x="783" 
d="M222 361c0 -129 58 -214 169 -214c112 0 170 84 170 214c0 122 -58 210 -170 210c-111 0 -169 -89 -169 -210zM36 361c0 227 137 371 355 371c219 0 356 -144 356 -371c0 -234 -137 -374 -356 -374c-218 0 -355 140 -355 374z" />
    <glyph glyph-name="P" unicode="P" horiz-adv-x="632" 
d="M324 568h-91v-196h87c72 0 107 37 107 98c0 60 -32 98 -103 98zM56 0v720h283c166 0 263 -90 263 -242c0 -155 -89 -250 -272 -250h-97v-228h-177z" />
    <glyph glyph-name="Q" unicode="Q" horiz-adv-x="783" 
d="M700 -102l-267 91c-14 -1 -28 -2 -42 -2c-218 0 -355 140 -355 374c0 227 137 371 355 371c219 0 356 -144 356 -371c0 -122 -46 -212 -120 -273v-5l133 -43zM222 361c0 -129 58 -214 169 -214c112 0 170 84 170 214c0 122 -58 210 -170 210c-111 0 -169 -89 -169 -210z
" />
    <glyph glyph-name="Q.alt" horiz-adv-x="783" 
d="M36 361c0 227 137 371 355 371c219 0 356 -144 356 -371c0 -204 -104 -336 -275 -367v-139h-159v139c-173 29 -277 162 -277 367zM222 361c0 -129 58 -214 169 -214c112 0 170 84 170 214c0 122 -58 210 -170 210c-111 0 -169 -89 -169 -210z" />
    <glyph glyph-name="R" unicode="R" horiz-adv-x="666" 
d="M56 720h281c181 0 275 -93 275 -234c0 -93 -37 -157 -110 -199l149 -287h-192l-121 246c-19 -3 -36 -4 -56 -4h-49v-242h-177v720zM328 568h-95v-186h90c72 0 109 34 109 96s-34 90 -104 90z" />
    <glyph glyph-name="S" unicode="S" horiz-adv-x="614" 
d="M16 113l86 108c66 -52 143 -88 206 -88c55 0 87 26 87 69c0 42 -25 61 -140 94c-146 42 -209 100 -209 215c0 152 117 221 264 221c95 0 187 -35 259 -100l-81 -108c-53 40 -115 66 -174 66c-52 0 -86 -20 -86 -60c0 -47 41 -60 160 -99c133 -43 191 -95 191 -210
c0 -147 -104 -234 -269 -234c-118 0 -217 44 -294 126z" />
    <glyph glyph-name="T" unicode="T" horiz-adv-x="623" 
d="M223 0v564h-208v156h593v-156h-208v-564h-177z" />
    <glyph glyph-name="U" unicode="U" horiz-adv-x="698" 
d="M51 720h177v-440c0 -93 48 -136 120 -136c82 0 122 43 122 136v440h177v-444c0 -193 -110 -288 -299 -288c-188 0 -297 88 -297 288v444z" />
    <glyph glyph-name="V" unicode="V" horiz-adv-x="658" 
d="M224 0l-222 720h185l142 -512l146 512h181l-227 -720h-205z" />
    <glyph glyph-name="W" unicode="W" horiz-adv-x="930" 
d="M180 0l-177 720h181l105 -489l97 489h158l100 -490l101 490h182l-178 -720h-183l-101 444l-96 -444h-189z" />
    <glyph glyph-name="X" unicode="X" horiz-adv-x="670" 
d="M4 0l222 366l-212 354h195l126 -221l131 221h201l-230 -367l222 -353h-203l-125 209l-119 -209h-208z" />
    <glyph glyph-name="Y" unicode="Y" horiz-adv-x="669" 
d="M241 0v276l-241 444h193l138 -270l140 270h198l-251 -444v-276h-177z" />
    <glyph glyph-name="Z" unicode="Z" horiz-adv-x="632" 
d="M25 0v111l312 453h-297v156h565v-69l-341 -496h340v-155h-579z" />
    <glyph glyph-name="a" unicode="a" horiz-adv-x="549" 
d="M334 187v24c-16 3 -27 5 -49 5c-51 0 -92 -13 -92 -63c0 -31 20 -50 62 -50c46 0 79 37 79 84zM504 340v-340h-135l-15 62c-35 -47 -90 -75 -161 -75c-97 0 -167 51 -167 158c0 91 68 167 239 167c28 0 47 -1 69 -4v29c0 49 -26 73 -75 73c-59 0 -103 -19 -154 -46
l-53 101c65 47 147 76 231 76c143 0 221 -59 221 -201z" />
    <glyph glyph-name="b" unicode="b" horiz-adv-x="615" 
d="M219 351v-180c19 -24 50 -46 92 -46c59 0 95 38 95 137s-31 142 -92 142c-39 0 -71 -23 -95 -53zM181 0h-132v720h170v-241c35 37 85 62 150 62c119 0 217 -84 217 -273c0 -177 -72 -280 -238 -280c-71 0 -122 36 -152 73z" />
    <glyph glyph-name="c" unicode="c" horiz-adv-x="549" 
d="M474 167l45 -103c-56 -44 -134 -77 -228 -77c-152 0 -262 96 -262 275c0 165 105 279 269 279c143 0 229 -75 231 -222h-141c-4 60 -35 85 -82 85c-60 0 -98 -40 -98 -136c0 -91 40 -147 114 -147c51 0 100 18 152 46z" />
    <glyph glyph-name="d" unicode="d" horiz-adv-x="611" 
d="M416 0l-10 64c-28 -39 -79 -77 -159 -77c-146 0 -218 102 -218 276c0 186 103 278 225 278c59 0 107 -24 142 -58v237h169v-720h-149zM395 171v189c-17 18 -50 41 -92 41c-60 0 -95 -42 -95 -136c0 -80 24 -139 97 -139c41 0 72 24 90 45z" />
    <glyph glyph-name="e" unicode="e" horiz-adv-x="564" 
d="M474 160l44 -106c-64 -42 -137 -67 -223 -67c-168 0 -266 101 -266 273c0 171 103 281 268 281c154 0 241 -82 241 -250c0 -15 -1 -63 -3 -75h-326c7 -49 35 -95 109 -95c49 0 91 11 156 39zM209 319h168c0 54 -19 96 -78 96c-64 0 -89 -57 -90 -96z" />
    <glyph glyph-name="f" unicode="f" horiz-adv-x="338" 
d="M80 0v406h-69v97l69 17v43c0 107 52 169 167 169c39 0 69 -4 101 -12l-8 -110c-15 4 -31 7 -46 7c-28 0 -44 -15 -44 -48v-40h86v-123h-86v-406h-170z" />
    <glyph glyph-name="g" unicode="g" horiz-adv-x="615" 
d="M565 529v-490c0 -187 -83 -249 -264 -249c-79 0 -152 17 -197 34l25 119c51 -11 97 -22 158 -22c79 0 115 26 115 114v31c-37 -47 -93 -71 -155 -71c-133 0 -218 86 -218 260c0 172 80 286 228 286c71 0 125 -36 157 -71l12 59h139zM395 173v186c-15 17 -53 42 -95 42
c-58 0 -92 -44 -92 -136c0 -84 29 -133 96 -133c42 0 72 21 91 41z" />
    <glyph glyph-name="h" unicode="h" horiz-adv-x="587" 
d="M49 720h170v-246c37 38 93 67 156 67c103 0 167 -65 167 -181v-360h-170v316c0 54 -14 84 -67 84c-35 0 -69 -23 -86 -41v-359h-170v720z" />
    <glyph glyph-name="i" unicode="i" horiz-adv-x="277" 
d="M44 660c0 55 43 83 98 83c58 0 99 -28 99 -83c0 -52 -41 -80 -99 -80c-54 0 -98 28 -98 80zM224 529v-529h-170v529h170z" />
    <glyph glyph-name="j" unicode="j" horiz-adv-x="275" 
d="M222 529v-565c0 -108 -48 -168 -164 -168c-38 0 -71 4 -99 13l9 117c14 -3 28 -5 42 -5c29 0 43 10 43 52v556h169zM40 660c0 55 43 83 98 83c58 0 99 -28 99 -83c0 -52 -41 -80 -99 -80c-54 0 -98 28 -98 80z" />
    <glyph glyph-name="j.alt" horiz-adv-x="275" 
d="M222 529v-542c0 -131 -48 -191 -201 -191h-62v131h35c45 0 59 13 59 59v543h169zM40 660c0 55 43 83 98 83c58 0 99 -28 99 -83c0 -52 -41 -80 -99 -80c-54 0 -98 28 -98 80z" />
    <glyph glyph-name="k" unicode="k" horiz-adv-x="574" 
d="M219 720v-361h43l105 170h184l-156 -235l180 -294h-197l-128 222h-31v-222h-170v720h170z" />
    <glyph glyph-name="l" unicode="l" horiz-adv-x="268" 
d="M219 0h-170v720h170v-720z" />
    <glyph glyph-name="m" unicode="m" horiz-adv-x="853" 
d="M49 529h140l15 -62c33 37 82 74 157 74c63 0 105 -25 129 -71c38 38 91 71 167 71c98 0 151 -59 151 -173v-368h-170v333c0 43 -10 66 -50 66c-33 0 -61 -22 -74 -35v-364h-170v327c0 45 -6 72 -46 72c-34 0 -65 -22 -79 -37v-362h-170v529z" />
    <glyph glyph-name="m.alt" horiz-adv-x="853" 
d="M49 529h272c77 0 116 -19 142 -72c57 65 105 84 188 84c98 0 157 -59 157 -173v-368h-170v333c0 43 -10 66 -50 66c-33 0 -61 -22 -74 -35v-364h-170v322c0 45 -23 69 -72 69h-53v-391h-170v529z" />
    <glyph glyph-name="n" unicode="n" horiz-adv-x="587" 
d="M49 529h140l15 -63c35 39 94 75 169 75c103 0 169 -63 169 -179v-362h-170v307c0 67 -23 93 -66 93c-41 0 -75 -27 -87 -41v-359h-170v529z" />
    <glyph glyph-name="o" unicode="o" horiz-adv-x="613" 
d="M208 265c0 -102 40 -139 99 -139c57 0 98 37 98 139c0 100 -40 139 -98 139c-59 0 -99 -43 -99 -139zM29 261c0 188 125 280 280 280s275 -91 275 -276s-124 -278 -285 -278c-164 0 -270 93 -270 274z" />
    <glyph glyph-name="p" unicode="p" horiz-adv-x="616" 
d="M219 353v-185c15 -14 53 -42 96 -42c54 0 90 37 90 136c0 94 -27 141 -88 141c-40 0 -81 -31 -98 -50zM219 -200h-170v729h139l19 -61c47 50 102 73 167 73c119 0 212 -84 212 -273c0 -177 -76 -280 -222 -280c-74 0 -121 34 -145 56v-244z" />
    <glyph glyph-name="q" unicode="q" horiz-adv-x="611" 
d="M394 -200v244c-23 -23 -67 -56 -140 -56c-153 0 -225 101 -225 275c0 186 103 278 232 278c55 0 109 -22 153 -67l24 55h127v-729h-171zM395 169v191c-16 17 -50 41 -92 41c-60 0 -95 -42 -95 -136c0 -80 24 -139 97 -139c41 0 72 23 90 43z" />
    <glyph glyph-name="r" unicode="r" horiz-adv-x="375" 
d="M182 529l18 -71c25 47 68 83 114 83c21 0 40 -5 56 -12l-12 -152c-19 6 -33 8 -54 8c-33 0 -69 -26 -85 -47v-338h-170v529h133z" />
    <glyph glyph-name="s" unicode="s" horiz-adv-x="519" 
d="M18 84l69 94c50 -36 122 -63 163 -63c38 0 53 14 53 34c0 26 -16 36 -90 54c-110 26 -167 69 -167 165c0 106 86 173 220 173c88 0 162 -30 222 -85l-70 -91c-53 31 -100 51 -141 51c-34 0 -52 -10 -52 -32c0 -24 25 -32 100 -54c108 -32 161 -69 161 -163
c0 -116 -85 -180 -220 -180c-103 0 -193 42 -248 97z" />
    <glyph glyph-name="t" unicode="t" horiz-adv-x="358" 
d="M338 406h-86v-254c0 -27 11 -37 35 -37c15 0 29 3 43 7l15 -114c-42 -14 -82 -21 -127 -21c-94 0 -135 51 -135 133v286h-72v96l75 26l16 158h150v-157h86v-123z" />
    <glyph glyph-name="u" unicode="u" horiz-adv-x="582" 
d="M533 0h-136l-18 63c-40 -44 -88 -76 -162 -76c-119 0 -172 66 -172 180v362h171v-320c0 -53 16 -83 62 -83c37 0 67 17 86 39v364h169v-529z" />
    <glyph glyph-name="v" unicode="v" horiz-adv-x="545" 
d="M3 529h173l101 -371l101 371h164l-168 -529h-199z" />
    <glyph glyph-name="w" unicode="w" horiz-adv-x="796" 
d="M621 529h169l-143 -529h-185l-65 303l-63 -303h-185l-143 529h168l75 -343l68 343h160l80 -343z" />
    <glyph glyph-name="x" unicode="x" horiz-adv-x="557" 
d="M0 0l176 264l-171 265h183l90 -159l94 159h180l-171 -265l175 -264h-181l-96 157l-98 -157h-181z" />
    <glyph glyph-name="y" unicode="y" horiz-adv-x="557" 
d="M382 529h169l-182 -501c-57 -157 -87 -232 -220 -232c-45 0 -85 7 -111 13l12 118c17 -2 44 -6 74 -6c34 0 55 8 70 60l4 14l-192 534h177l99 -364z" />
    <glyph glyph-name="y.alt" horiz-adv-x="557" 
d="M382 529h169l-183 -517v-68c0 -129 -52 -144 -189 -144h-68v133h59c23 0 32 6 32 29v44l-196 523h177l99 -358z" />
    <glyph glyph-name="z" unicode="z" horiz-adv-x="472" 
d="M29 0v103l202 302h-197v124h414v-70l-218 -335h218v-124h-419z" />
    <glyph glyph-name="bracketleft" unicode="[" horiz-adv-x="361" 
d="M321 -125h-256v845h256v-124h-98v-598h98v-123z" />
    <glyph glyph-name="bracketright" unicode="]" horiz-adv-x="361" 
d="M296 -125h-256v123h98v598h-98v124h256v-845z" />
    <glyph glyph-name="parenleft" unicode="(" horiz-adv-x="378" 
d="M219 741l118 -58c-86 -129 -126 -222 -126 -378c0 -134 36 -234 135 -373l-100 -67c-114 98 -198 262 -198 438c0 169 62 316 171 438z" />
    <glyph glyph-name="parenright" unicode=")" horiz-adv-x="378" 
d="M41 683l118 58c109 -122 171 -269 171 -438c0 -176 -84 -340 -198 -438l-100 67c99 139 135 239 135 373c0 156 -40 249 -126 378z" />
    <glyph glyph-name="braceleft" unicode="{" horiz-adv-x="426" 
d="M390 604h-34c-45 0 -57 -27 -57 -101v-110c0 -54 -21 -91 -80 -106c74 -18 80 -60 80 -145v-85c0 -49 6 -66 56 -66h35v-116h-52c-156 0 -198 35 -198 161v117c0 55 -15 75 -60 75h-45v115h39c56 0 66 25 66 108v71c0 150 54 198 207 198h43v-116z" />
    <glyph glyph-name="braceright" unicode="}" horiz-adv-x="426" 
d="M70 604h-34v116h43c153 0 207 -48 207 -198v-71c0 -83 10 -108 66 -108h39v-115h-45c-45 0 -60 -20 -60 -75v-117c0 -126 -42 -161 -198 -161h-52v116h35c50 0 56 17 56 66v85c0 85 6 127 80 145c-59 15 -80 52 -80 106v110c0 74 -12 101 -57 101z" />
    <glyph glyph-name="backslash" unicode="\" horiz-adv-x="425" 
d="M176 739l237 -831h-134l-239 831h136z" />
    <glyph glyph-name="slash" unicode="/" horiz-adv-x="428" 
d="M15 -92l237 831h136l-239 -831h-134z" />
    <glyph glyph-name="brokenbar" unicode="&#xa6;" horiz-adv-x="500" 
d="M322 219v-419h-144v419h144zM322 720v-420h-144v420h144z" />
    <glyph glyph-name="bar" unicode="|" horiz-adv-x="500" 
d="M322 720v-920h-144v920h144z" />
    <glyph glyph-name="asciicircum" unicode="^" horiz-adv-x="717" 
d="M404 693l223 -237l-77 -64l-191 191l-193 -192l-78 72l222 230h94z" />
    <glyph glyph-name="underscore" unicode="_" horiz-adv-x="480" 
d="M-4 -211v115h488v-115h-488z" />
    <glyph glyph-name="asciitilde" unicode="~" horiz-adv-x="798" 
d="M675 385l65 -110c-58 -45 -140 -83 -216 -83c-90 0 -180 61 -258 61c-60 0 -95 -21 -152 -56l-63 107c66 50 135 82 210 82c87 0 178 -60 256 -60c56 0 106 25 158 59z" />
    <glyph glyph-name="zero" unicode="0" horiz-adv-x="619" 
d="M207 351c0 -145 29 -222 102 -222c71 0 103 77 103 225c0 142 -28 224 -102 224s-103 -82 -103 -227zM41 351c0 243 98 369 272 369c172 0 265 -126 265 -360c0 -252 -97 -373 -272 -373c-174 0 -265 121 -265 364z" />
    <glyph glyph-name="one" unicode="1" horiz-adv-x="530" 
d="M205 127v382c-44 -21 -92 -33 -149 -37l-21 111c73 19 155 68 205 127h130v-583h125v-127h-431v127h141z" />
    <glyph glyph-name="two" unicode="2" horiz-adv-x="546" 
d="M35 0v100l232 273c47 55 66 85 66 127c0 48 -33 77 -82 77c-51 0 -126 -39 -173 -77l-63 105c64 61 162 115 266 115c113 0 217 -65 217 -198c0 -81 -31 -134 -91 -206l-151 -181h254v-135h-475z" />
    <glyph glyph-name="three" unicode="3" horiz-adv-x="556" 
d="M15 84l65 104c51 -38 105 -62 167 -62c60 0 108 24 108 83c0 55 -35 86 -113 87c-20 0 -54 -2 -68 -5l-3 130c82 2 154 38 154 99c0 47 -33 64 -80 64c-52 0 -100 -19 -141 -42l-61 102c69 48 138 76 233 76c122 0 207 -64 207 -174c0 -75 -50 -141 -132 -170v-3
c103 -10 160 -71 160 -171c0 -145 -112 -215 -251 -215c-87 0 -179 30 -245 97z" />
    <glyph glyph-name="four" unicode="4" horiz-adv-x="606" 
d="M174 274h172v288zM346 0v142h-318v127l271 441h210v-436h72v-132h-72v-142h-163z" />
    <glyph glyph-name="five" unicode="5" horiz-adv-x="548" 
d="M48 254l33 456h388l-10 -150h-251l-12 -136c26 21 66 38 116 38c120 0 196 -75 196 -223c0 -163 -116 -252 -257 -252c-79 0 -171 28 -233 83l53 108c62 -33 109 -50 163 -50c61 0 115 27 115 114c0 66 -29 99 -82 99c-35 0 -64 -17 -80 -32l-5 -55h-134z" />
    <glyph glyph-name="six" unicode="6" horiz-adv-x="577" 
d="M41 319c0 249 99 401 281 401c61 0 118 -13 188 -51l-46 -111c-41 22 -83 32 -124 32c-97 0 -139 -96 -144 -204c39 36 90 67 154 67c111 0 192 -75 192 -212c0 -184 -110 -254 -243 -254c-179 0 -258 121 -258 332zM297 123c52 0 90 38 90 103c0 71 -33 101 -85 101
c-41 0 -84 -27 -103 -45c1 -99 30 -159 98 -159z" />
    <glyph glyph-name="seven" unicode="7" horiz-adv-x="495" 
d="M485 600l-240 -600h-172v16l226 545h-280v149h466v-110z" />
    <glyph glyph-name="eight" unicode="8" horiz-adv-x="572" 
d="M180 197c0 -52 36 -82 99 -82c57 0 91 34 91 82c0 60 -57 92 -114 115c-43 -24 -76 -65 -76 -115zM220 534c0 -43 39 -70 88 -90c30 20 58 52 58 91c0 45 -29 67 -76 67s-70 -30 -70 -68zM30 182c0 99 69 161 124 191c-46 22 -97 79 -97 159c0 111 89 188 236 188
c135 0 221 -69 221 -173c0 -79 -51 -133 -99 -162c73 -39 124 -97 124 -185c0 -137 -106 -213 -264 -213s-245 70 -245 195z" />
    <glyph glyph-name="nine" unicode="9" horiz-adv-x="573" 
d="M531 403c0 -268 -100 -416 -272 -416c-71 0 -141 20 -205 56l46 108c36 -18 92 -36 137 -36c97 0 130 99 137 197c-39 -36 -89 -61 -149 -61c-120 0 -196 89 -196 220c0 168 112 249 243 249c174 0 259 -119 259 -317zM274 585c-52 0 -91 -38 -91 -103
c0 -71 36 -100 88 -100c41 0 80 21 101 46c0 89 -30 157 -98 157z" />
    <glyph glyph-name="dollar" unicode="$" horiz-adv-x="547" 
d="M213 -88v91c-73 12 -152 60 -201 108l75 94c59 -46 130 -74 185 -74c48 0 79 16 79 56c0 38 -20 61 -132 94c-114 34 -187 89 -187 202c0 110 75 180 182 196v82h127v-84c68 -13 129 -47 171 -86l-74 -97c-43 34 -103 61 -156 61c-51 0 -85 -13 -85 -56
c0 -39 30 -64 139 -95c120 -34 186 -97 186 -200c0 -111 -68 -183 -181 -201v-91h-128z" />
    <glyph glyph-name="Euro" unicode="&#x20ac;" horiz-adv-x="623" 
d="M5 381l6 82h63c22 140 134 257 296 257c82 0 168 -31 234 -102l-67 -90c-43 37 -104 63 -159 63c-78 0 -124 -46 -144 -128h264l-6 -82h-267c-1 -11 -1 -20 -1 -31c0 -10 0 -19 1 -27h262l-7 -81h-246c20 -79 73 -116 145 -116c62 0 121 25 169 63l60 -98
c-85 -74 -160 -104 -254 -104c-152 0 -263 107 -282 255h-79l7 81h66c-1 8 -1 23 -1 37v21h-60z" />
    <glyph glyph-name="cent" unicode="&#xa2;" horiz-adv-x="570" 
d="M490 258l49 -105c-43 -33 -96 -58 -156 -69v-102h-130v99c-121 16 -208 107 -208 269c0 147 81 256 209 272v97h129v-98c106 -22 160 -92 162 -217h-141c-4 60 -35 85 -82 85c-60 0 -98 -37 -98 -133c0 -91 41 -143 115 -143c51 0 99 17 151 45z" />
    <glyph glyph-name="sterling" unicode="&#xa3;" horiz-adv-x="542" 
d="M314 233c0 -38 -21 -76 -43 -101h239v-132h-473v118l67 10c27 26 49 66 49 105c0 24 -11 61 -18 78h-97v102h61c-19 35 -33 68 -33 112c0 112 93 195 227 195c88 0 166 -34 222 -92l-65 -95c-42 30 -84 55 -138 55c-53 0 -73 -32 -73 -76c0 -28 12 -62 30 -99h139v-102
h-111c8 -20 17 -56 17 -78z" />
    <glyph glyph-name="yen" unicode="&#xa5;" horiz-adv-x="606" 
d="M59 294v88h124l-175 328h175l120 -260l126 260h169l-182 -328h130v-88h-168v-65h168v-88h-168v-141h-157v141h-163v88h163v65h-162z" />
    <glyph glyph-name="florin" unicode="&#x192;" horiz-adv-x="475" 
d="M-31 -81h39c33 0 51 21 61 68l69 321h-81v110h104l20 102c21 108 54 190 185 190h91v-123h-60c-40 0 -52 -35 -61 -84l-17 -85h88v-110h-110l-63 -297c-28 -134 -58 -211 -192 -211h-73v119z" />
    <glyph glyph-name="section" unicode="&#xa7;" horiz-adv-x="536" 
d="M52 75l59 85c41 -27 105 -56 157 -56c37 0 50 12 50 30c0 29 -44 38 -96 54c-72 22 -159 54 -159 145c0 67 39 104 92 128c-56 27 -82 68 -82 115c0 96 77 156 193 156c95 0 164 -29 212 -70l-45 -86c-56 33 -102 46 -143 46c-33 0 -63 -10 -63 -37c0 -28 19 -38 89 -63
c126 -46 162 -81 162 -148c0 -60 -43 -95 -88 -114c57 -30 86 -70 86 -122c0 -99 -87 -151 -194 -151c-84 0 -173 33 -230 88zM243 415c-19 -11 -41 -28 -41 -53c0 -29 41 -46 88 -59c23 13 41 32 41 53c0 32 -48 43 -88 59z" />
    <glyph glyph-name="copyright" unicode="&#xa9;" horiz-adv-x="799" 
d="M524 280l36 -55c-43 -41 -93 -62 -158 -62c-110 0 -169 85 -169 197c0 113 63 200 177 200c82 0 147 -46 151 -142h-80c-4 41 -22 68 -72 68c-56 0 -89 -46 -89 -125c0 -84 37 -123 93 -123c46 0 80 20 111 42zM405 659c-166 0 -294 -123 -294 -299
c0 -190 128 -299 294 -299c157 0 296 131 296 299c0 176 -120 299 -296 299zM405 720c218 0 360 -143 360 -356c0 -211 -166 -364 -360 -364s-360 124 -360 360c0 213 161 360 360 360z" />
    <glyph glyph-name="registered" unicode="&#xae;" horiz-adv-x="423" 
d="M211 687c-79 0 -139 -59 -139 -140c0 -91 57 -141 139 -141c74 0 137 61 137 140c0 86 -57 141 -137 141zM212 728c106 0 182 -71 182 -182c0 -104 -84 -182 -183 -182c-106 0 -183 65 -183 182c0 108 81 182 184 182zM143 637h71c47 0 70 -24 70 -59
c0 -21 -10 -39 -30 -49l40 -70h-46l-33 61c-5 -1 -11 -1 -16 -1h-16v-60h-40v178zM209 605h-26v-54h24c23 0 34 9 34 29c0 14 -10 25 -32 25z" />
    <glyph glyph-name="trademark" unicode="&#x2122;" horiz-adv-x="649" 
d="M616 451h-67l-15 163l-54 -163h-52l-53 163l-16 -163h-68l29 269h82l54 -170l55 170h75zM113 451v204h-83v65h239v-65h-84v-204h-72z" />
    <glyph glyph-name="ordfeminine" unicode="&#xaa;" horiz-adv-x="492" 
d="M301 408v13c-11 2 -23 4 -46 4c-48 0 -79 -13 -79 -47c0 -27 17 -40 50 -40c44 0 75 34 75 70zM422 515v-251h-102l-10 48c-22 -35 -71 -58 -121 -58c-75 0 -133 38 -133 115c0 68 49 125 175 125c25 0 47 -2 71 -5v23c0 39 -27 58 -70 58c-47 0 -90 -14 -126 -32l-30 79
c46 25 108 45 166 45c115 0 180 -43 180 -147z" />
    <glyph glyph-name="ordmasculine" unicode="&#xba;" horiz-adv-x="509" 
d="M176 456c0 -80 33 -106 80 -106c44 0 79 26 79 106c0 81 -35 110 -79 110c-47 0 -80 -29 -80 -110zM49 458c0 137 94 204 207 204c111 0 205 -67 205 -204c0 -136 -97 -203 -205 -203c-123 0 -207 67 -207 203z" />
    <glyph glyph-name="guillemotleft" unicode="&#xab;" horiz-adv-x="485" 
d="M463 369l-94 -108l92 -108l-65 -60l-161 148v38l161 152zM255 369l-94 -108l92 -108l-65 -60l-161 148v38l161 152z" />
    <glyph glyph-name="guillemotright" unicode="&#xbb;" horiz-adv-x="489" 
d="M328 261l-94 108l67 62l161 -152v-38l-161 -148l-65 60zM116 261l-94 108l67 62l161 -152v-38l-161 -148l-65 60z" />
    <glyph glyph-name="guilsinglleft" unicode="&#x2039;" horiz-adv-x="277" 
d="M255 369l-94 -108l92 -108l-65 -60l-161 148v38l161 152z" />
    <glyph glyph-name="guilsinglright" unicode="&#x203a;" horiz-adv-x="277" 
d="M116 261l-94 108l67 62l161 -152v-38l-161 -148l-65 60z" />
    <glyph glyph-name="quoteleft" unicode="&#x2018;" horiz-adv-x="228" 
d="M195 566c0 -41 -33 -73 -78 -73c-58 0 -87 43 -87 95c0 80 42 135 137 165l21 -53c-48 -18 -69 -44 -71 -76c39 10 78 -17 78 -58z" />
    <glyph glyph-name="quoteright" unicode="&#x2019;" horiz-adv-x="225" 
d="M30 651c0 41 33 73 78 73c58 0 87 -43 87 -95c0 -80 -42 -135 -137 -165l-21 53c48 18 69 44 71 76c-39 -10 -78 17 -78 58z" />
    <glyph glyph-name="quotesinglbase" unicode="&#x201a;" horiz-adv-x="226" 
d="M37 47c0 41 33 73 78 73c58 0 87 -43 87 -95c0 -80 -42 -135 -137 -165l-21 53c48 18 69 44 71 76c-39 -10 -78 17 -78 58z" />
    <glyph glyph-name="quotedblleft" unicode="&#x201c;" horiz-adv-x="425" 
d="M195 566c0 -41 -33 -73 -78 -73c-58 0 -87 43 -87 95c0 80 42 135 137 165l21 -53c-48 -18 -69 -44 -71 -76c39 10 78 -17 78 -58zM392 566c0 -41 -33 -73 -78 -73c-58 0 -87 43 -87 95c0 80 42 135 137 165l21 -53c-48 -18 -69 -44 -71 -76c39 10 78 -17 78 -58z" />
    <glyph glyph-name="quotedblright" unicode="&#x201d;" horiz-adv-x="421" 
d="M226 651c0 41 33 73 78 73c58 0 87 -43 87 -95c0 -80 -42 -135 -137 -165l-21 53c48 18 69 44 71 76c-39 -10 -78 17 -78 58zM30 651c0 41 33 73 78 73c58 0 87 -43 87 -95c0 -80 -42 -135 -137 -165l-21 53c48 18 69 44 71 76c-39 -10 -78 17 -78 58z" />
    <glyph glyph-name="quotedblbase" unicode="&#x201e;" horiz-adv-x="421" 
d="M232 47c0 41 33 73 78 73c58 0 87 -43 87 -95c0 -80 -42 -135 -137 -165l-21 53c48 18 69 44 71 76c-39 -10 -78 17 -78 58zM37 47c0 41 33 73 78 73c58 0 87 -43 87 -95c0 -80 -42 -135 -137 -165l-21 53c48 18 69 44 71 76c-39 -10 -78 17 -78 58z" />
    <glyph glyph-name="dagger" unicode="&#x2020;" horiz-adv-x="502" 
d="M326 -105h-151v494h-141v135h141v196h151v-196h142v-135h-142v-494z" />
    <glyph glyph-name="daggerdbl" unicode="&#x2021;" horiz-adv-x="502" 
d="M327 -105h-152v192h-141v135h141v167h-141v135h141v196h152v-196h141v-135h-141v-167h141v-135h-141v-192z" />
    <glyph glyph-name="bullet" unicode="&#x2022;" horiz-adv-x="500" 
d="M108 312c0 80 65 143 143 143c76 0 144 -64 144 -143c0 -78 -66 -144 -145 -144c-82 0 -142 68 -142 144z" />
    <glyph glyph-name="ellipsis" unicode="&#x2026;" horiz-adv-x="913" 
d="M363 69c0 54 32 88 92 88c57 0 92 -34 92 -84s-35 -86 -92 -86c-61 0 -92 36 -92 82zM72 69c0 54 32 88 92 88c57 0 92 -34 92 -84s-35 -86 -92 -86c-61 0 -92 36 -92 82zM657 69c0 54 32 88 92 88c57 0 92 -34 92 -84s-35 -86 -92 -86c-61 0 -92 36 -92 82z" />
    <glyph glyph-name="paragraph" unicode="&#xb6;" horiz-adv-x="564" 
d="M508 720v-720h-108v634h-71v-634h-108v340c-114 12 -185 77 -185 187c0 115 88 193 220 193h252z" />
    <glyph glyph-name="periodcentered" unicode="&#xb7;" horiz-adv-x="316" 
d="M73 332c0 54 32 88 92 88c57 0 92 -34 92 -84s-35 -86 -92 -86c-61 0 -92 36 -92 82z" />
    <glyph glyph-name="uni00AD" unicode="&#xad;" horiz-adv-x="322" 
d="M26 211v133h269v-133h-269z" />
    <glyph glyph-name="endash" unicode="&#x2013;" horiz-adv-x="500" 
d="M0 218v106h500v-106h-500z" />
    <glyph glyph-name="emdash" unicode="&#x2014;" horiz-adv-x="1000" 
d="M0 217v106h1000v-106h-1000z" />
    <glyph glyph-name="hyphen.case" horiz-adv-x="322" 
d="M26 264v133h269v-133h-269z" />
    <glyph glyph-name="Agrave" unicode="&#xc0;" horiz-adv-x="700" 
d="M261 720h177l257 -720h-190l-40 132h-230l-40 -132h-190zM281 281h137l-69 237zM290 939l183 -113l-46 -79l-195 89z" />
    <glyph glyph-name="Aacute" unicode="&#xc1;" horiz-adv-x="700" 
d="M261 720h177l257 -720h-190l-40 132h-230l-40 -132h-190zM281 281h137l-69 237zM232 826l184 113l57 -103l-195 -89z" />
    <glyph glyph-name="Acircumflex" unicode="&#xc2;" horiz-adv-x="700" 
d="M261 720h177l257 -720h-190l-40 132h-230l-40 -132h-190zM281 281h137l-69 237zM305 925h97l111 -119l-61 -50l-97 64l-96 -65l-63 53z" />
    <glyph glyph-name="Atilde" unicode="&#xc3;" horiz-adv-x="700" 
d="M261 720h177l257 -720h-190l-40 132h-230l-40 -132h-190zM281 281h137l-69 237zM450 910l70 -28c-14 -57 -35 -105 -95 -105c-47 0 -102 33 -129 33c-17 0 -26 -9 -39 -38l-73 28c16 60 48 106 97 106c52 0 97 -34 129 -34c18 0 25 6 40 38z" />
    <glyph glyph-name="Adieresis" unicode="&#xc4;" horiz-adv-x="700" 
d="M261 720h177l257 -720h-190l-40 132h-230l-40 -132h-190zM281 281h137l-69 237zM384 838c0 40 29 72 81 72c57 0 82 -32 82 -72c0 -41 -33 -70 -81 -70c-54 0 -82 28 -82 70zM162 838c0 40 31 72 82 72c56 0 81 -32 81 -72c0 -41 -32 -70 -80 -70c-55 0 -83 28 -83 70z
" />
    <glyph glyph-name="Aring" unicode="&#xc5;" horiz-adv-x="700" 
d="M238 788c0 68 51 109 116 109c64 0 114 -38 114 -104c0 -31 -11 -57 -30 -75l257 -718h-190l-40 132h-230l-40 -132h-190l256 720c-15 17 -23 39 -23 68zM281 281h137l-69 237zM313 792c0 -26 16 -39 41 -39c22 0 40 16 40 40s-17 37 -40 37c-25 0 -41 -16 -41 -38z" />
    <glyph glyph-name="AE" unicode="&#xc6;" horiz-adv-x="1007" 
d="M469 0v161h-193l-78 -161h-198l348 720h620v-156h-322v-129h292v-146h-292v-134h326v-155h-503zM323 304h146v267h-17z" />
    <glyph glyph-name="Ccedilla" unicode="&#xc7;" horiz-adv-x="679" 
d="M291 -209l12 63c19 -6 37 -10 60 -10c28 0 43 8 43 29c0 25 -23 28 -65 28h-16l18 87c-205 9 -307 158 -307 370c0 216 116 374 333 374c158 0 280 -86 290 -272h-178c-7 57 -28 112 -109 112c-90 0 -147 -71 -147 -213c0 -144 60 -212 157 -212c81 0 141 33 197 77
l79 -120c-75 -66 -158 -105 -252 -115l-6 -34c52 -4 97 -24 97 -81c0 -62 -42 -100 -117 -100c-39 0 -71 9 -89 17z" />
    <glyph glyph-name="Egrave" unicode="&#xc8;" horiz-adv-x="594" 
d="M56 0v720h499v-156h-322v-129h292v-146h-292v-134h326v-155h-503zM228 940l183 -113l-46 -79l-195 89z" />
    <glyph glyph-name="Eacute" unicode="&#xc9;" horiz-adv-x="594" 
d="M56 0v720h499v-156h-322v-129h292v-146h-292v-134h326v-155h-503zM192 827l184 113l57 -103l-195 -89z" />
    <glyph glyph-name="Ecircumflex" unicode="&#xca;" horiz-adv-x="594" 
d="M56 0v720h499v-156h-322v-129h292v-146h-292v-134h326v-155h-503zM254 926h97l111 -119l-61 -50l-97 64l-96 -65l-63 53z" />
    <glyph glyph-name="Edieresis" unicode="&#xcb;" horiz-adv-x="594" 
d="M56 0v720h499v-156h-322v-129h292v-146h-292v-134h326v-155h-503zM327 839c0 40 29 72 81 72c57 0 82 -32 82 -72c0 -41 -33 -70 -81 -70c-54 0 -82 28 -82 70zM105 839c0 40 31 72 82 72c56 0 81 -32 81 -72c0 -41 -32 -70 -80 -70c-55 0 -83 28 -83 70z" />
    <glyph glyph-name="Igrave" unicode="&#xcc;" horiz-adv-x="289" 
d="M56 0v720h177v-720h-177zM78 939l183 -113l-46 -79l-195 89z" />
    <glyph glyph-name="Iacute" unicode="&#xcd;" horiz-adv-x="289" 
d="M56 0v720h177v-720h-177zM20 826l184 113l57 -103l-195 -89z" />
    <glyph glyph-name="Icircumflex" unicode="&#xce;" horiz-adv-x="289" 
d="M56 0v720h177v-720h-177zM96 925h97l111 -119l-61 -50l-97 64l-96 -65l-63 53z" />
    <glyph glyph-name="Idieresis" unicode="&#xcf;" horiz-adv-x="289" 
d="M56 0v720h177v-720h-177zM172 838c0 40 29 72 81 72c57 0 82 -32 82 -72c0 -41 -33 -70 -81 -70c-54 0 -82 28 -82 70zM-50 838c0 40 31 72 82 72c56 0 81 -32 81 -72c0 -41 -32 -70 -80 -70c-55 0 -83 28 -83 70z" />
    <glyph glyph-name="Eth" unicode="&#xd0;" horiz-adv-x="759" 
d="M30 295v119h72v306h261c240 0 360 -142 360 -362c0 -245 -125 -358 -387 -358h-234v295h-72zM363 559h-84v-145h111v-119h-111v-134h84c120 0 174 60 174 197c0 133 -54 201 -174 201z" />
    <glyph glyph-name="Ntilde" unicode="&#xd1;" horiz-adv-x="720" 
d="M56 0v720h154l279 -423v423h175v-720h-153l-281 414v-414h-174zM460 910l70 -28c-14 -57 -35 -105 -95 -105c-47 0 -102 33 -129 33c-17 0 -26 -9 -39 -38l-73 28c16 60 48 106 97 106c52 0 97 -34 129 -34c18 0 25 6 40 38z" />
    <glyph glyph-name="Ograve" unicode="&#xd2;" horiz-adv-x="783" 
d="M222 361c0 -129 58 -214 169 -214c112 0 170 84 170 214c0 122 -58 210 -170 210c-111 0 -169 -89 -169 -210zM36 361c0 227 137 371 355 371c219 0 356 -144 356 -371c0 -234 -137 -374 -356 -374c-218 0 -355 140 -355 374zM327 939l183 -113l-46 -79l-195 89z" />
    <glyph glyph-name="Oacute" unicode="&#xd3;" horiz-adv-x="783" 
d="M222 361c0 -129 58 -214 169 -214c112 0 170 84 170 214c0 122 -58 210 -170 210c-111 0 -169 -89 -169 -210zM36 361c0 227 137 371 355 371c219 0 356 -144 356 -371c0 -234 -137 -374 -356 -374c-218 0 -355 140 -355 374zM269 826l184 113l57 -103l-195 -89z" />
    <glyph glyph-name="Ocircumflex" unicode="&#xd4;" horiz-adv-x="783" 
d="M222 361c0 -129 58 -214 169 -214c112 0 170 84 170 214c0 122 -58 210 -170 210c-111 0 -169 -89 -169 -210zM36 361c0 227 137 371 355 371c219 0 356 -144 356 -371c0 -234 -137 -374 -356 -374c-218 0 -355 140 -355 374zM346 925h97l111 -119l-61 -50l-97 64
l-96 -65l-63 53z" />
    <glyph glyph-name="Otilde" unicode="&#xd5;" horiz-adv-x="783" 
d="M222 361c0 -129 58 -214 169 -214c112 0 170 84 170 214c0 122 -58 210 -170 210c-111 0 -169 -89 -169 -210zM36 361c0 227 137 371 355 371c219 0 356 -144 356 -371c0 -234 -137 -374 -356 -374c-218 0 -355 140 -355 374zM501 910l70 -28c-14 -57 -35 -105 -95 -105
c-47 0 -102 33 -129 33c-17 0 -26 -9 -39 -38l-73 28c16 60 48 106 97 106c52 0 97 -34 129 -34c18 0 25 6 40 38z" />
    <glyph glyph-name="Odieresis" unicode="&#xd6;" horiz-adv-x="783" 
d="M222 361c0 -129 58 -214 169 -214c112 0 170 84 170 214c0 122 -58 210 -170 210c-111 0 -169 -89 -169 -210zM36 361c0 227 137 371 355 371c219 0 356 -144 356 -371c0 -234 -137 -374 -356 -374c-218 0 -355 140 -355 374zM421 838c0 40 29 72 81 72
c57 0 82 -32 82 -72c0 -41 -33 -70 -81 -70c-54 0 -82 28 -82 70zM199 838c0 40 31 72 82 72c56 0 81 -32 81 -72c0 -41 -32 -70 -80 -70c-55 0 -83 28 -83 70z" />
    <glyph glyph-name="Oslash" unicode="&#xd8;" horiz-adv-x="783" 
d="M36 361c0 227 137 371 355 371c20 0 40 -2 59 -4l22 63h139l-36 -102c109 -59 172 -175 172 -328c0 -234 -137 -374 -356 -374c-21 0 -41 1 -60 4l-24 -70h-137l37 108c-108 58 -171 173 -171 332zM561 361c0 63 -16 117 -46 154l-129 -368h5c112 0 170 84 170 214z
M222 361c0 -67 15 -122 45 -159l128 369h-4c-111 0 -169 -89 -169 -210z" />
    <glyph glyph-name="Ugrave" unicode="&#xd9;" horiz-adv-x="698" 
d="M51 720h177v-440c0 -93 48 -136 120 -136c82 0 122 43 122 136v440h177v-444c0 -193 -110 -288 -299 -288c-188 0 -297 88 -297 288v444zM284 939l183 -113l-46 -79l-195 89z" />
    <glyph glyph-name="Uacute" unicode="&#xda;" horiz-adv-x="698" 
d="M51 720h177v-440c0 -93 48 -136 120 -136c82 0 122 43 122 136v440h177v-444c0 -193 -110 -288 -299 -288c-188 0 -297 88 -297 288v444zM233 826l184 113l57 -103l-195 -89z" />
    <glyph glyph-name="Ucircumflex" unicode="&#xdb;" horiz-adv-x="698" 
d="M51 720h177v-440c0 -93 48 -136 120 -136c82 0 122 43 122 136v440h177v-444c0 -193 -110 -288 -299 -288c-188 0 -297 88 -297 288v444zM303 925h97l111 -119l-61 -50l-97 64l-96 -65l-63 53z" />
    <glyph glyph-name="Udieresis" unicode="&#xdc;" horiz-adv-x="698" 
d="M51 720h177v-440c0 -93 48 -136 120 -136c82 0 122 43 122 136v440h177v-444c0 -193 -110 -288 -299 -288c-188 0 -297 88 -297 288v444zM378 838c0 40 29 72 81 72c57 0 82 -32 82 -72c0 -41 -33 -70 -81 -70c-54 0 -82 28 -82 70zM156 838c0 40 31 72 82 72
c56 0 81 -32 81 -72c0 -41 -32 -70 -80 -70c-55 0 -83 28 -83 70z" />
    <glyph glyph-name="Yacute" unicode="&#xdd;" horiz-adv-x="669" 
d="M241 0v276l-241 444h193l138 -270l140 270h198l-251 -444v-276h-177zM228 826l184 113l57 -103l-195 -89z" />
    <glyph glyph-name="Thorn" unicode="&#xde;" horiz-adv-x="632" 
d="M51 0v720h177v-95h105c149 0 239 -70 258 -191c4 -23 5 -47 4 -72c-7 -143 -97 -229 -270 -229h-97v-133h-177zM319 470h-91v-198h87c71 0 107 38 107 103c0 63 -32 95 -103 95z" />
    <glyph glyph-name="germandbls" unicode="&#xdf;" horiz-adv-x="649" 
d="M80 0v406h-69v96l69 18v16c0 146 133 184 256 184c139 0 229 -61 229 -189c0 -78 -48 -139 -119 -159c104 -21 168 -83 168 -184c0 -130 -91 -200 -201 -200c-47 0 -102 15 -138 43l32 111c17 -10 39 -16 60 -16c48 0 79 26 79 79c0 67 -52 92 -144 97v126
c60 4 101 34 101 91c0 55 -27 79 -77 79c-52 0 -77 -31 -77 -95v-503h-169z" />
    <glyph glyph-name="agrave" unicode="&#xe0;" horiz-adv-x="549" 
d="M334 187v24c-16 3 -27 5 -49 5c-51 0 -92 -13 -92 -63c0 -31 20 -50 62 -50c46 0 79 37 79 84zM504 340v-340h-135l-15 62c-35 -47 -90 -75 -161 -75c-97 0 -167 51 -167 158c0 91 68 167 239 167c28 0 47 -1 69 -4v29c0 49 -26 73 -75 73c-59 0 -103 -19 -154 -46
l-53 101c65 47 147 76 231 76c143 0 221 -59 221 -201zM227 795l159 -143l-65 -77l-174 126z" />
    <glyph glyph-name="aacute" unicode="&#xe1;" horiz-adv-x="549" 
d="M334 187v24c-16 3 -27 5 -49 5c-51 0 -92 -13 -92 -63c0 -31 20 -50 62 -50c46 0 79 37 79 84zM504 340v-340h-135l-15 62c-35 -47 -90 -75 -161 -75c-97 0 -167 51 -167 158c0 91 68 167 239 167c28 0 47 -1 69 -4v29c0 49 -26 73 -75 73c-59 0 -103 -19 -154 -46
l-53 101c65 47 147 76 231 76c143 0 221 -59 221 -201zM150 649l164 150l78 -95l-177 -129z" />
    <glyph glyph-name="acircumflex" unicode="&#xe2;" horiz-adv-x="549" 
d="M334 187v24c-16 3 -27 5 -49 5c-51 0 -92 -13 -92 -63c0 -31 20 -50 62 -50c46 0 79 37 79 84zM504 340v-340h-135l-15 62c-35 -47 -90 -75 -161 -75c-97 0 -167 51 -167 158c0 91 68 167 239 167c28 0 47 -1 69 -4v29c0 49 -26 73 -75 73c-59 0 -103 -19 -154 -46
l-53 101c65 47 147 76 231 76c143 0 221 -59 221 -201zM221 765h97l113 -142l-63 -47l-97 84l-96 -84l-68 46z" />
    <glyph glyph-name="atilde" unicode="&#xe3;" horiz-adv-x="549" 
d="M334 187v24c-16 3 -27 5 -49 5c-51 0 -92 -13 -92 -63c0 -31 20 -50 62 -50c46 0 79 37 79 84zM504 340v-340h-135l-15 62c-35 -47 -90 -75 -161 -75c-97 0 -167 51 -167 158c0 91 68 167 239 167c28 0 47 -1 69 -4v29c0 49 -26 73 -75 73c-59 0 -103 -19 -154 -46
l-53 101c65 47 147 76 231 76c143 0 221 -59 221 -201zM368 726l70 -28c-14 -57 -35 -105 -95 -105c-47 0 -102 33 -129 33c-17 0 -26 -9 -39 -38l-73 28c16 60 48 106 97 106c52 0 97 -34 129 -34c18 0 25 6 40 38z" />
    <glyph glyph-name="adieresis" unicode="&#xe4;" horiz-adv-x="549" 
d="M334 187v24c-16 3 -27 5 -49 5c-51 0 -92 -13 -92 -63c0 -31 20 -50 62 -50c46 0 79 37 79 84zM504 340v-340h-135l-15 62c-35 -47 -90 -75 -161 -75c-97 0 -167 51 -167 158c0 91 68 167 239 167c28 0 47 -1 69 -4v29c0 49 -26 73 -75 73c-59 0 -103 -19 -154 -46
l-53 101c65 47 147 76 231 76c143 0 221 -59 221 -201zM298 660c0 40 29 72 81 72c57 0 82 -32 82 -72c0 -41 -33 -70 -81 -70c-54 0 -82 28 -82 70zM76 660c0 40 31 72 82 72c56 0 81 -32 81 -72c0 -41 -32 -70 -80 -70c-55 0 -83 28 -83 70z" />
    <glyph glyph-name="aring" unicode="&#xe5;" horiz-adv-x="549" 
d="M334 187v24c-16 3 -27 5 -49 5c-51 0 -92 -13 -92 -63c0 -31 20 -50 62 -50c46 0 79 37 79 84zM504 340v-340h-135l-15 62c-35 -47 -90 -75 -161 -75c-97 0 -167 51 -167 158c0 91 68 167 239 167c28 0 47 -1 69 -4v29c0 49 -26 73 -75 73c-59 0 -103 -19 -154 -46
l-53 101c65 47 147 76 231 76c143 0 221 -59 221 -201zM237 676c0 -24 16 -37 40 -37c21 0 38 15 38 38s-16 36 -38 36c-24 0 -40 -15 -40 -37zM166 673c0 65 48 104 111 104c61 0 109 -36 109 -100c0 -63 -48 -102 -109 -102c-67 0 -111 34 -111 98z" />
    <glyph glyph-name="ae" unicode="&#xe6;" horiz-adv-x="867" 
d="M777 160l44 -106c-64 -42 -137 -67 -223 -67c-79 0 -145 26 -188 67c-54 -46 -113 -67 -184 -67c-120 0 -200 51 -200 169c0 85 63 159 218 159c31 0 59 -2 90 -7v32c0 54 -31 78 -81 78c-60 0 -124 -19 -169 -39l-34 102c62 35 152 60 227 60c70 0 123 -14 164 -65
c37 39 93 65 174 65c139 0 226 -82 226 -250c0 -15 -1 -60 -3 -72h-326c7 -49 35 -98 109 -98c49 0 91 11 156 39zM257 107c46 0 76 20 94 39c-10 21 -16 49 -17 71c-13 4 -31 6 -52 6c-61 0 -88 -22 -88 -61c0 -33 20 -55 63 -55zM512 317h168c-1 58 -19 98 -78 98
c-64 0 -90 -56 -90 -98z" />
    <glyph glyph-name="ccedilla" unicode="&#xe7;" horiz-adv-x="549" 
d="M198 -209l12 63c19 -6 43 -11 66 -11c28 0 45 6 45 29c0 25 -21 32 -63 32h-19l16 85c-133 14 -226 108 -226 273s105 279 269 279c143 0 229 -75 231 -222h-141c-4 60 -35 85 -82 85c-60 0 -98 -40 -98 -136c0 -91 40 -147 114 -147c51 0 100 18 152 46l45 -103
c-51 -40 -119 -70 -201 -76l-6 -33c52 -4 96 -24 96 -81c0 -62 -41 -100 -116 -100c-39 0 -76 9 -94 17z" />
    <glyph glyph-name="egrave" unicode="&#xe8;" horiz-adv-x="564" 
d="M474 160l44 -106c-64 -42 -137 -67 -223 -67c-168 0 -266 101 -266 273c0 171 103 281 268 281c154 0 241 -82 241 -250c0 -15 -1 -63 -3 -75h-326c7 -49 35 -95 109 -95c49 0 91 11 156 39zM209 319h168c0 54 -19 96 -78 96c-64 0 -89 -57 -90 -96zM241 795l159 -143
l-65 -77l-174 126z" />
    <glyph glyph-name="eacute" unicode="&#xe9;" horiz-adv-x="564" 
d="M474 160l44 -106c-64 -42 -137 -67 -223 -67c-168 0 -266 101 -266 273c0 171 103 281 268 281c154 0 241 -82 241 -250c0 -15 -1 -63 -3 -75h-326c7 -49 35 -95 109 -95c49 0 91 11 156 39zM209 319h168c0 54 -19 96 -78 96c-64 0 -89 -57 -90 -96zM175 649l164 150
l78 -95l-177 -129z" />
    <glyph glyph-name="ecircumflex" unicode="&#xea;" horiz-adv-x="564" 
d="M474 160l44 -106c-64 -42 -137 -67 -223 -67c-168 0 -266 101 -266 273c0 171 103 281 268 281c154 0 241 -82 241 -250c0 -15 -1 -63 -3 -75h-326c7 -49 35 -95 109 -95c49 0 91 11 156 39zM209 319h168c0 54 -19 96 -78 96c-64 0 -89 -57 -90 -96zM244 765h97l113 -142
l-63 -47l-97 84l-96 -84l-68 46z" />
    <glyph glyph-name="edieresis" unicode="&#xeb;" horiz-adv-x="564" 
d="M474 160l44 -106c-64 -42 -137 -67 -223 -67c-168 0 -266 101 -266 273c0 171 103 281 268 281c154 0 241 -82 241 -250c0 -15 -1 -63 -3 -75h-326c7 -49 35 -95 109 -95c49 0 91 11 156 39zM209 319h168c0 54 -19 96 -78 96c-64 0 -89 -57 -90 -96zM321 660
c0 40 29 72 81 72c57 0 82 -32 82 -72c0 -41 -33 -70 -81 -70c-54 0 -82 28 -82 70zM99 660c0 40 31 72 82 72c56 0 81 -32 81 -72c0 -41 -32 -70 -80 -70c-55 0 -83 28 -83 70z" />
    <glyph glyph-name="igrave" unicode="&#xec;" horiz-adv-x="276" 
d="M224 529v-529h-170v529h170zM96 795l159 -143l-65 -77l-174 126z" />
    <glyph glyph-name="iacute" unicode="&#xed;" horiz-adv-x="276" 
d="M224 529v-529h-170v529h170zM11 649l164 150l78 -95l-177 -129z" />
    <glyph glyph-name="icircumflex" unicode="&#xee;" horiz-adv-x="276" 
d="M224 529v-529h-170v529h170zM91 765h97l113 -142l-63 -47l-97 84l-96 -84l-68 46z" />
    <glyph glyph-name="idieresis" unicode="&#xef;" horiz-adv-x="276" 
d="M224 529v-529h-170v529h170zM168 660c0 40 29 72 81 72c57 0 82 -32 82 -72c0 -41 -33 -70 -81 -70c-54 0 -82 28 -82 70zM-54 660c0 40 31 72 82 72c56 0 81 -32 81 -72c0 -41 -32 -70 -80 -70c-55 0 -83 28 -83 70z" />
    <glyph glyph-name="eth" unicode="&#xf0;" horiz-adv-x="564" 
d="M531 305c0 -198 -89 -318 -264 -318c-131 0 -238 72 -238 231c0 141 80 231 199 231c61 0 112 -27 148 -62c-27 144 -124 192 -263 216l39 121c75 -7 137 -25 189 -52l84 65l81 -95l-65 -50c61 -73 90 -171 90 -287zM275 123c68 0 98 59 97 157c-21 25 -58 48 -100 48
c-52 0 -86 -41 -86 -105c0 -70 36 -100 89 -100z" />
    <glyph glyph-name="ntilde" unicode="&#xf1;" horiz-adv-x="587" 
d="M49 529h140l15 -63c35 39 94 75 169 75c103 0 169 -63 169 -179v-362h-170v307c0 67 -23 93 -66 93c-41 0 -75 -27 -87 -41v-359h-170v529zM398 726l70 -28c-14 -57 -35 -105 -95 -105c-47 0 -102 33 -129 33c-17 0 -26 -9 -39 -38l-73 28c16 60 48 106 97 106
c52 0 97 -34 129 -34c18 0 25 6 40 38z" />
    <glyph glyph-name="ograve" unicode="&#xf2;" horiz-adv-x="613" 
d="M208 265c0 -102 40 -139 99 -139c57 0 98 37 98 139c0 100 -40 139 -98 139c-59 0 -99 -43 -99 -139zM29 261c0 188 125 280 280 280s275 -91 275 -276s-124 -278 -285 -278c-164 0 -270 93 -270 274zM266 795l159 -143l-65 -77l-174 126z" />
    <glyph glyph-name="oacute" unicode="&#xf3;" horiz-adv-x="613" 
d="M208 265c0 -102 40 -139 99 -139c57 0 98 37 98 139c0 100 -40 139 -98 139c-59 0 -99 -43 -99 -139zM29 261c0 188 125 280 280 280s275 -91 275 -276s-124 -278 -285 -278c-164 0 -270 93 -270 274zM190 649l164 150l78 -95l-177 -129z" />
    <glyph glyph-name="ocircumflex" unicode="&#xf4;" horiz-adv-x="613" 
d="M208 265c0 -102 40 -139 99 -139c57 0 98 37 98 139c0 100 -40 139 -98 139c-59 0 -99 -43 -99 -139zM29 261c0 188 125 280 280 280s275 -91 275 -276s-124 -278 -285 -278c-164 0 -270 93 -270 274zM256 765h97l113 -142l-63 -47l-97 84l-96 -84l-68 46z" />
    <glyph glyph-name="otilde" unicode="&#xf5;" horiz-adv-x="613" 
d="M208 265c0 -102 40 -139 99 -139c57 0 98 37 98 139c0 100 -40 139 -98 139c-59 0 -99 -43 -99 -139zM29 261c0 188 125 280 280 280s275 -91 275 -276s-124 -278 -285 -278c-164 0 -270 93 -270 274zM404 726l70 -28c-14 -57 -35 -105 -95 -105c-47 0 -102 33 -129 33
c-17 0 -26 -9 -39 -38l-73 28c16 60 48 106 97 106c52 0 97 -34 129 -34c18 0 25 6 40 38z" />
    <glyph glyph-name="odieresis" unicode="&#xf6;" horiz-adv-x="613" 
d="M208 265c0 -102 40 -139 99 -139c57 0 98 37 98 139c0 100 -40 139 -98 139c-59 0 -99 -43 -99 -139zM29 261c0 188 125 280 280 280s275 -91 275 -276s-124 -278 -285 -278c-164 0 -270 93 -270 274zM333 660c0 40 29 72 81 72c57 0 82 -32 82 -72
c0 -41 -33 -70 -81 -70c-54 0 -82 28 -82 70zM111 660c0 40 31 72 82 72c56 0 81 -32 81 -72c0 -41 -32 -70 -80 -70c-55 0 -83 28 -83 70z" />
    <glyph glyph-name="oslash" unicode="&#xf8;" horiz-adv-x="613" 
d="M29 261c0 188 125 280 280 280c13 0 27 -1 40 -2l21 57h119l-33 -89c77 -42 128 -123 128 -242c0 -185 -124 -278 -285 -278c-13 0 -25 1 -37 2l-25 -69h-118l36 98c-79 41 -126 122 -126 243zM405 265c0 31 -4 56 -11 76l-80 -215c53 3 91 41 91 139zM208 265
c0 -32 3 -57 10 -77l80 216c-54 -4 -90 -48 -90 -139z" />
    <glyph glyph-name="ugrave" unicode="&#xf9;" horiz-adv-x="582" 
d="M533 0h-136l-18 63c-40 -44 -88 -76 -162 -76c-119 0 -172 66 -172 180v362h171v-320c0 -53 16 -83 62 -83c37 0 67 17 86 39v364h169v-529zM249 795l159 -143l-65 -77l-174 126z" />
    <glyph glyph-name="uacute" unicode="&#xfa;" horiz-adv-x="582" 
d="M533 0h-136l-18 63c-40 -44 -88 -76 -162 -76c-119 0 -172 66 -172 180v362h171v-320c0 -53 16 -83 62 -83c37 0 67 17 86 39v364h169v-529zM178 649l164 150l78 -95l-177 -129z" />
    <glyph glyph-name="ucircumflex" unicode="&#xfb;" horiz-adv-x="582" 
d="M533 0h-136l-18 63c-40 -44 -88 -76 -162 -76c-119 0 -172 66 -172 180v362h171v-320c0 -53 16 -83 62 -83c37 0 67 17 86 39v364h169v-529zM242 765h97l113 -142l-63 -47l-97 84l-96 -84l-68 46z" />
    <glyph glyph-name="udieresis" unicode="&#xfc;" horiz-adv-x="582" 
d="M533 0h-136l-18 63c-40 -44 -88 -76 -162 -76c-119 0 -172 66 -172 180v362h171v-320c0 -53 16 -83 62 -83c37 0 67 17 86 39v364h169v-529zM319 660c0 40 29 72 81 72c57 0 82 -32 82 -72c0 -41 -33 -70 -81 -70c-54 0 -82 28 -82 70zM97 660c0 40 31 72 82 72
c56 0 81 -32 81 -72c0 -41 -32 -70 -80 -70c-55 0 -83 28 -83 70z" />
    <glyph glyph-name="yacute" unicode="&#xfd;" horiz-adv-x="557" 
d="M382 529h169l-182 -501c-57 -157 -87 -232 -220 -232c-45 0 -85 7 -111 13l12 118c17 -2 44 -6 74 -6c34 0 55 8 70 60l4 14l-192 534h177l99 -364zM167 649l164 150l78 -95l-177 -129z" />
    <glyph glyph-name="thorn" unicode="&#xfe;" horiz-adv-x="616" 
d="M219 361v-202c18 -20 48 -43 88 -43c62 0 98 47 98 146s-31 150 -92 150c-40 0 -69 -21 -94 -51zM219 -200h-170v920h166v-252c39 42 97 73 167 73c114 0 202 -84 202 -273c0 -177 -74 -280 -220 -280c-74 0 -121 34 -145 56v-244z" />
    <glyph glyph-name="ydieresis" unicode="&#xff;" horiz-adv-x="557" 
d="M382 529h169l-182 -501c-57 -157 -87 -232 -220 -232c-45 0 -85 7 -111 13l12 118c17 -2 44 -6 74 -6c34 0 55 8 70 60l4 14l-192 534h177l99 -364zM309 660c0 40 29 72 81 72c57 0 82 -32 82 -72c0 -41 -33 -70 -81 -70c-54 0 -82 28 -82 70zM87 660c0 40 31 72 82 72
c56 0 81 -32 81 -72c0 -41 -32 -70 -80 -70c-55 0 -83 28 -83 70z" />
    <glyph glyph-name="Amacron" unicode="&#x100;" horiz-adv-x="700" 
d="M261 720h177l257 -720h-190l-40 132h-230l-40 -132h-190zM281 281h137l-69 237zM209 783v103h289v-103h-289z" />
    <glyph glyph-name="amacron" unicode="&#x101;" horiz-adv-x="549" 
d="M334 187v24c-16 3 -27 5 -49 5c-51 0 -92 -13 -92 -63c0 -31 20 -50 62 -50c46 0 79 37 79 84zM504 340v-340h-135l-15 62c-35 -47 -90 -75 -161 -75c-97 0 -167 51 -167 158c0 91 68 167 239 167c28 0 47 -1 69 -4v29c0 49 -26 73 -75 73c-59 0 -103 -19 -154 -46
l-53 101c65 47 147 76 231 76c143 0 221 -59 221 -201zM132 602v103h289v-103h-289z" />
    <glyph glyph-name="Abreve" unicode="&#x102;" horiz-adv-x="700" 
d="M261 720h177l257 -720h-190l-40 132h-230l-40 -132h-190zM281 281h137l-69 237zM354 847c50 0 64 21 71 64l94 -14c-8 -87 -59 -132 -165 -132c-107 0 -154 39 -168 132l97 14c8 -44 25 -64 71 -64z" />
    <glyph glyph-name="abreve" unicode="&#x103;" horiz-adv-x="549" 
d="M334 187v24c-16 3 -27 5 -49 5c-51 0 -92 -13 -92 -63c0 -31 20 -50 62 -50c46 0 79 37 79 84zM504 340v-340h-135l-15 62c-35 -47 -90 -75 -161 -75c-97 0 -167 51 -167 158c0 91 68 167 239 167c28 0 47 -1 69 -4v29c0 49 -26 73 -75 73c-59 0 -103 -19 -154 -46
l-53 101c65 47 147 76 231 76c143 0 221 -59 221 -201zM269 673c50 0 65 25 71 71l94 -14c-8 -89 -59 -139 -165 -139c-107 0 -155 46 -168 139l97 15c7 -49 25 -72 71 -72z" />
    <glyph glyph-name="Aogonek" unicode="&#x104;" horiz-adv-x="700" 
d="M261 720h177l257 -720c-63 -40 -97 -88 -97 -117c0 -17 9 -28 29 -28c17 0 32 5 53 13l21 -70c-26 -15 -72 -32 -114 -32c-76 0 -105 35 -105 85c0 56 33 105 83 149h-60l-40 132h-230l-40 -132h-190zM281 281h137l-69 237z" />
    <glyph glyph-name="aogonek" unicode="&#x105;" horiz-adv-x="549" 
d="M504 340v-340c-54 -42 -82 -88 -82 -117c0 -17 9 -28 29 -28c17 0 32 5 53 13l21 -70c-26 -15 -72 -32 -114 -32c-76 0 -105 35 -105 85c0 56 33 105 83 149h-18l-19 66c-35 -47 -92 -79 -159 -79c-97 0 -167 51 -167 158c0 91 68 162 239 162c28 0 47 -1 69 -4v37
c0 49 -26 73 -79 73c-59 0 -100 -15 -151 -42l-52 97c58 43 147 73 231 73c143 0 221 -59 221 -201zM334 173v41c-12 3 -27 5 -49 5c-51 0 -92 -16 -92 -66c0 -32 21 -52 60 -52c46 0 81 30 81 72z" />
    <glyph glyph-name="Cacute" unicode="&#x106;" horiz-adv-x="679" 
d="M579 224l79 -120c-86 -76 -183 -117 -295 -117c-218 0 -327 152 -327 371c0 216 116 374 333 374c158 0 280 -86 290 -272h-178c-7 57 -28 112 -109 112c-90 0 -147 -71 -147 -213c0 -144 60 -212 157 -212c81 0 141 33 197 77zM247 826l184 113l57 -103l-195 -89z" />
    <glyph glyph-name="cacute" unicode="&#x107;" horiz-adv-x="549" 
d="M474 167l45 -103c-56 -44 -134 -77 -228 -77c-152 0 -262 96 -262 275c0 165 105 279 269 279c143 0 229 -75 231 -222h-141c-4 60 -35 85 -82 85c-60 0 -98 -40 -98 -136c0 -91 40 -147 114 -147c51 0 100 18 152 46zM177 649l164 150l78 -95l-177 -129z" />
    <glyph glyph-name="Ccircumflex" unicode="&#x108;" horiz-adv-x="679" 
d="M579 224l79 -120c-86 -76 -183 -117 -295 -117c-218 0 -327 152 -327 371c0 216 116 374 333 374c158 0 280 -86 290 -272h-178c-7 57 -28 112 -109 112c-90 0 -147 -71 -147 -213c0 -144 60 -212 157 -212c81 0 141 33 197 77zM306 925h97l111 -119l-61 -50l-97 64
l-96 -65l-63 53z" />
    <glyph glyph-name="ccircumflex" unicode="&#x109;" horiz-adv-x="549" 
d="M474 167l45 -103c-56 -44 -134 -77 -228 -77c-152 0 -262 96 -262 275c0 165 105 279 269 279c143 0 229 -75 231 -222h-141c-4 60 -35 85 -82 85c-60 0 -98 -40 -98 -136c0 -91 40 -147 114 -147c51 0 100 18 152 46zM236 765h97l113 -142l-63 -47l-97 84l-96 -84
l-68 46z" />
    <glyph glyph-name="Cdotaccent" unicode="&#x10a;" horiz-adv-x="679" 
d="M579 224l79 -120c-86 -76 -183 -117 -295 -117c-218 0 -327 152 -327 371c0 216 116 374 333 374c158 0 280 -86 290 -272h-178c-7 57 -28 112 -109 112c-90 0 -147 -71 -147 -213c0 -144 60 -212 157 -212c81 0 141 33 197 77zM268 851c0 55 43 83 98 83
c58 0 99 -28 99 -83c0 -52 -41 -80 -99 -80c-54 0 -98 28 -98 80z" />
    <glyph glyph-name="cdotaccent" unicode="&#x10b;" horiz-adv-x="549" 
d="M474 167l45 -103c-56 -44 -134 -77 -228 -77c-152 0 -262 96 -262 275c0 165 105 279 269 279c143 0 229 -75 231 -222h-141c-4 60 -35 85 -82 85c-60 0 -98 -40 -98 -136c0 -91 40 -147 114 -147c51 0 100 18 152 46zM197 660c0 55 43 83 98 83c58 0 99 -28 99 -83
c0 -52 -41 -80 -99 -80c-54 0 -98 28 -98 80z" />
    <glyph glyph-name="Ccaron" unicode="&#x10c;" horiz-adv-x="679" 
d="M579 224l79 -120c-86 -76 -183 -117 -295 -117c-218 0 -327 152 -327 371c0 216 116 374 333 374c158 0 280 -86 290 -272h-178c-7 57 -28 112 -109 112c-90 0 -147 -71 -147 -213c0 -144 60 -212 157 -212c81 0 141 33 197 77zM421 762h-97l-111 119l61 50l97 -64l96 65
l63 -53z" />
    <glyph glyph-name="ccaron" unicode="&#x10d;" horiz-adv-x="549" 
d="M474 167l45 -103c-56 -44 -134 -77 -228 -77c-152 0 -262 96 -262 275c0 165 105 279 269 279c143 0 229 -75 231 -222h-141c-4 60 -35 85 -82 85c-60 0 -98 -40 -98 -136c0 -91 40 -147 114 -147c51 0 100 18 152 46zM339 581h-97l-113 142l66 49l96 -86l96 84l66 -46z
" />
    <glyph glyph-name="Dcaron" unicode="&#x10e;" horiz-adv-x="713" 
d="M317 564h-84v-409h84c120 0 175 68 175 205c0 133 -55 204 -175 204zM56 720h261c240 0 360 -142 360 -348c0 -259 -125 -372 -387 -372h-234v720zM348 762h-97l-111 119l61 50l97 -64l96 65l63 -53z" />
    <glyph glyph-name="dcaron" unicode="&#x10f;" horiz-adv-x="729" 
d="M416 0l-10 64c-28 -39 -79 -77 -159 -77c-146 0 -218 102 -218 276c0 186 103 278 225 278c59 0 107 -24 142 -58v237h169v-720h-149zM395 171v189c-17 18 -50 41 -92 41c-60 0 -95 -42 -95 -136c0 -80 24 -139 97 -139c41 0 72 24 90 45zM596 514l28 206h135l-55 -206
h-108z" />
    <glyph glyph-name="Dcroat" unicode="&#x110;" horiz-adv-x="759" 
d="M30 295v119h72v306h261c240 0 360 -142 360 -362c0 -245 -125 -358 -387 -358h-234v295h-72zM363 559h-84v-145h111v-119h-111v-134h84c120 0 174 60 174 197c0 133 -54 201 -174 201z" />
    <glyph glyph-name="dcroat" unicode="&#x111;" horiz-adv-x="611" 
d="M246 569v90h150v61h169v-61h55v-90h-55v-569h-149l-10 64c-28 -39 -79 -77 -159 -77c-140 0 -218 94 -218 262c0 181 103 262 215 262c62 0 117 -24 152 -58v116h-150zM395 171v159c-17 18 -50 41 -92 41c-60 0 -95 -34 -95 -120c0 -74 24 -125 97 -125c41 0 72 24 90 45
z" />
    <glyph glyph-name="Emacron" unicode="&#x112;" horiz-adv-x="594" 
d="M56 0v720h499v-156h-322v-129h292v-146h-292v-134h326v-155h-503zM154 784v103h289v-103h-289z" />
    <glyph glyph-name="emacron" unicode="&#x113;" horiz-adv-x="564" 
d="M474 160l44 -106c-64 -42 -137 -67 -223 -67c-168 0 -266 101 -266 273c0 171 103 281 268 281c154 0 241 -82 241 -250c0 -15 -1 -63 -3 -75h-326c7 -49 35 -95 109 -95c49 0 91 11 156 39zM209 319h168c0 54 -19 96 -78 96c-64 0 -89 -57 -90 -96zM160 602v103h289
v-103h-289z" />
    <glyph glyph-name="Ebreve" unicode="&#x114;" horiz-adv-x="594" 
d="M56 0v720h499v-156h-322v-129h292v-146h-292v-134h326v-155h-503zM304 848c50 0 64 21 71 64l94 -14c-8 -87 -59 -132 -165 -132c-107 0 -154 39 -168 132l97 14c8 -44 25 -64 71 -64z" />
    <glyph glyph-name="ebreve" unicode="&#x115;" horiz-adv-x="564" 
d="M474 160l44 -106c-64 -42 -137 -67 -223 -67c-168 0 -266 101 -266 273c0 171 103 281 268 281c154 0 241 -82 241 -250c0 -15 -1 -63 -3 -75h-326c7 -49 35 -95 109 -95c49 0 91 11 156 39zM209 319h168c0 54 -19 96 -78 96c-64 0 -89 -57 -90 -96zM303 673
c50 0 65 25 71 71l94 -14c-8 -89 -59 -139 -165 -139c-107 0 -155 46 -168 139l97 15c7 -49 25 -72 71 -72z" />
    <glyph glyph-name="Edotaccent" unicode="&#x116;" horiz-adv-x="594" 
d="M56 0v720h499v-156h-322v-129h292v-146h-292v-134h326v-155h-503zM200 852c0 55 43 83 98 83c58 0 99 -28 99 -83c0 -52 -41 -80 -99 -80c-54 0 -98 28 -98 80z" />
    <glyph glyph-name="edotaccent" unicode="&#x117;" horiz-adv-x="564" 
d="M474 160l44 -106c-64 -42 -137 -67 -223 -67c-168 0 -266 101 -266 273c0 171 103 281 268 281c154 0 241 -82 241 -250c0 -15 -1 -63 -3 -75h-326c7 -49 35 -95 109 -95c49 0 91 11 156 39zM209 319h168c0 54 -19 96 -78 96c-64 0 -89 -57 -90 -96zM201 660
c0 55 43 83 98 83c58 0 99 -28 99 -83c0 -52 -41 -80 -99 -80c-54 0 -98 28 -98 80z" />
    <glyph glyph-name="Eogonek" unicode="&#x118;" horiz-adv-x="594" 
d="M56 0v720h499v-156h-322v-129h292v-146h-292v-134h326v-155h-43c-41 -42 -69 -88 -69 -117c0 -17 9 -28 29 -28c17 0 32 5 53 13l21 -70c-26 -15 -72 -32 -114 -32c-76 0 -105 35 -105 85c0 56 33 105 83 149h-358z" />
    <glyph glyph-name="eogonek" unicode="&#x119;" horiz-adv-x="564" 
d="M474 160l44 -106c-28 -18 -55 -34 -80 -49c-58 -36 -82 -91 -82 -122c0 -17 9 -28 29 -28c17 0 32 5 53 13l21 -70c-26 -15 -72 -32 -114 -32c-76 0 -105 35 -105 85c0 51 27 95 69 136h-14c-168 0 -266 101 -266 273c0 171 103 281 268 281c154 0 241 -82 241 -250
c0 -15 -1 -60 -3 -72h-326c7 -49 35 -98 109 -98c49 0 91 11 156 39zM209 317h168c-1 58 -19 98 -78 98c-64 0 -90 -56 -90 -98z" />
    <glyph glyph-name="Ecaron" unicode="&#x11a;" horiz-adv-x="594" 
d="M56 0v720h499v-156h-322v-129h292v-146h-292v-134h326v-155h-503zM356 763h-97l-111 119l61 50l97 -64l96 65l63 -53z" />
    <glyph glyph-name="ecaron" unicode="&#x11b;" horiz-adv-x="564" 
d="M474 160l44 -106c-64 -42 -137 -67 -223 -67c-168 0 -266 101 -266 273c0 171 103 281 268 281c154 0 241 -82 241 -250c0 -15 -1 -63 -3 -75h-326c7 -49 35 -95 109 -95c49 0 91 11 156 39zM209 319h168c0 54 -19 96 -78 96c-64 0 -89 -57 -90 -96zM346 581h-97
l-113 142l66 49l96 -86l96 84l66 -46z" />
    <glyph glyph-name="Gcircumflex" unicode="&#x11c;" horiz-adv-x="711" 
d="M393 264v133h274v-298c-84 -89 -195 -112 -293 -112c-256 0 -338 174 -338 370c0 218 105 375 337 375c204 0 282 -108 294 -251h-183c-6 51 -33 92 -108 92c-100 0 -154 -79 -154 -213s50 -217 168 -217c42 0 77 8 106 29v92h-103zM323 925h97l111 -119l-61 -50l-97 64
l-96 -65l-63 53z" />
    <glyph glyph-name="gcircumflex" unicode="&#x11d;" horiz-adv-x="615" 
d="M565 529v-490c0 -187 -83 -249 -264 -249c-79 0 -152 17 -197 34l25 119c51 -11 97 -22 158 -22c79 0 115 26 115 114v31c-37 -47 -93 -71 -155 -71c-133 0 -218 86 -218 260c0 172 80 286 228 286c71 0 125 -36 157 -71l12 59h139zM395 173v186c-15 17 -53 42 -95 42
c-58 0 -92 -44 -92 -136c0 -84 29 -133 96 -133c42 0 72 21 91 41zM255 765h97l113 -142l-63 -47l-97 84l-96 -84l-68 46z" />
    <glyph glyph-name="Gbreve" unicode="&#x11e;" horiz-adv-x="711" 
d="M393 264v133h274v-298c-84 -89 -195 -112 -293 -112c-256 0 -338 174 -338 370c0 218 105 375 337 375c204 0 282 -108 294 -251h-183c-6 51 -33 92 -108 92c-100 0 -154 -79 -154 -213s50 -217 168 -217c42 0 77 8 106 29v92h-103zM369 847c50 0 64 21 71 64l94 -14
c-8 -87 -59 -132 -165 -132c-107 0 -154 39 -168 132l97 14c8 -44 25 -64 71 -64z" />
    <glyph glyph-name="gbreve" unicode="&#x11f;" horiz-adv-x="615" 
d="M565 529v-490c0 -187 -83 -249 -264 -249c-79 0 -152 17 -197 34l25 119c51 -11 97 -22 158 -22c79 0 115 26 115 114v31c-37 -47 -93 -71 -155 -71c-133 0 -218 86 -218 260c0 172 80 286 228 286c71 0 125 -36 157 -71l12 59h139zM395 173v186c-15 17 -53 42 -95 42
c-58 0 -92 -44 -92 -136c0 -84 29 -133 96 -133c42 0 72 21 91 41zM302 673c50 0 65 25 71 71l94 -14c-8 -89 -59 -139 -165 -139c-107 0 -155 46 -168 139l97 15c7 -49 25 -72 71 -72z" />
    <glyph glyph-name="Gdotaccent" unicode="&#x120;" horiz-adv-x="711" 
d="M393 264v133h274v-298c-84 -89 -195 -112 -293 -112c-256 0 -338 174 -338 370c0 218 105 375 337 375c204 0 282 -108 294 -251h-183c-6 51 -33 92 -108 92c-100 0 -154 -79 -154 -213s50 -217 168 -217c42 0 77 8 106 29v92h-103zM278 851c0 55 43 83 98 83
c58 0 99 -28 99 -83c0 -52 -41 -80 -99 -80c-54 0 -98 28 -98 80z" />
    <glyph glyph-name="gdotaccent" unicode="&#x121;" horiz-adv-x="615" 
d="M565 529v-490c0 -187 -83 -249 -264 -249c-79 0 -152 17 -197 34l25 119c51 -11 97 -22 158 -22c79 0 115 26 115 114v31c-37 -47 -93 -71 -155 -71c-133 0 -218 86 -218 260c0 172 80 286 228 286c71 0 125 -36 157 -71l12 59h139zM395 173v186c-15 17 -53 42 -95 42
c-58 0 -92 -44 -92 -136c0 -84 29 -133 96 -133c42 0 72 21 91 41zM202 660c0 55 43 83 98 83c58 0 99 -28 99 -83c0 -52 -41 -80 -99 -80c-54 0 -98 28 -98 80z" />
    <glyph glyph-name="Gcommaaccent" unicode="&#x122;" horiz-adv-x="695" 
d="M393 264v133h274v-298c-84 -89 -195 -112 -293 -112c-256 0 -338 174 -338 370c0 218 105 375 337 375c204 0 282 -108 294 -251h-183c-6 51 -33 92 -108 92c-100 0 -154 -79 -154 -213s50 -217 168 -217c42 0 77 8 106 29v92h-103zM273 -236l41 183l128 -33l-65 -180z
" />
    <glyph glyph-name="gcommaaccent" unicode="&#x123;" horiz-adv-x="615" 
d="M565 529v-490c0 -187 -83 -249 -264 -249c-79 0 -152 17 -197 34l25 119c51 -11 97 -22 158 -22c79 0 115 26 115 114v31c-37 -47 -93 -71 -155 -71c-133 0 -218 86 -218 260c0 172 80 286 228 286c71 0 125 -36 157 -71l12 59h139zM395 173v186c-15 17 -53 42 -95 42
c-58 0 -92 -44 -92 -136c0 -84 29 -133 96 -133c42 0 72 21 91 41zM376 762l-42 -185l-132 33l65 181z" />
    <glyph glyph-name="Hcircumflex" unicode="&#x124;" horiz-adv-x="713" 
d="M56 0v720h177v-283h247v283h177v-720h-177v277h-247v-277h-177zM310 925h97l111 -119l-61 -50l-97 64l-96 -65l-63 53z" />
    <glyph glyph-name="hcircumflex" unicode="&#x125;" horiz-adv-x="587" 
d="M49 720h170v-246c37 38 93 67 156 67c103 0 167 -65 167 -181v-360h-170v316c0 54 -14 84 -67 84c-35 0 -69 -23 -86 -41v-359h-170v720zM84 919h97l111 -119l-61 -50l-97 64l-96 -65l-63 53z" />
    <glyph glyph-name="Hbar" unicode="&#x126;" horiz-adv-x="731" 
d="M4 523v103h61v94h177v-94h247v94h177v-94h59v-103h-59v-523h-177v277h-247v-277h-177v523h-61zM242 437h247v86h-247v-86z" />
    <glyph glyph-name="hbar" unicode="&#x127;" horiz-adv-x="587" 
d="M49 720h170v-61h143v-90h-143v-135c37 38 93 67 156 67c103 0 167 -65 167 -181v-320h-170v280c0 54 -12 94 -67 94c-35 0 -63 -24 -86 -51v-323h-170v569h-61v90h61v61z" />
    <glyph glyph-name="Itilde" unicode="&#x128;" horiz-adv-x="289" 
d="M56 0v720h177v-720h-177zM251 910l70 -28c-14 -57 -35 -105 -95 -105c-47 0 -102 33 -129 33c-17 0 -26 -9 -39 -38l-73 28c16 60 48 106 97 106c52 0 97 -34 129 -34c18 0 25 6 40 38z" />
    <glyph glyph-name="itilde" unicode="&#x129;" horiz-adv-x="276" 
d="M224 529v-529h-170v529h170zM238 726l70 -28c-14 -57 -35 -105 -95 -105c-47 0 -102 33 -129 33c-17 0 -26 -9 -39 -38l-73 28c16 60 48 106 97 106c52 0 97 -34 129 -34c18 0 25 6 40 38z" />
    <glyph glyph-name="Imacron" unicode="&#x12a;" horiz-adv-x="289" 
d="M56 0v720h177v-720h-177zM-3 783v103h289v-103h-289z" />
    <glyph glyph-name="imacron" unicode="&#x12b;" horiz-adv-x="276" 
d="M224 529v-529h-170v529h170zM-5 602v103h289v-103h-289z" />
    <glyph glyph-name="Ibreve" unicode="&#x12c;" horiz-adv-x="289" 
d="M56 0v720h177v-720h-177zM142 847c50 0 64 21 71 64l94 -14c-8 -87 -59 -132 -165 -132c-107 0 -154 39 -168 132l97 14c8 -44 25 -64 71 -64z" />
    <glyph glyph-name="ibreve" unicode="&#x12d;" horiz-adv-x="276" 
d="M224 529v-529h-170v529h170zM139 673c50 0 65 25 71 71l94 -14c-8 -89 -59 -139 -165 -139c-107 0 -155 46 -168 139l97 15c7 -49 25 -72 71 -72z" />
    <glyph glyph-name="Iogonek" unicode="&#x12e;" horiz-adv-x="289" 
d="M56 0v720h177v-720c-70 -42 -98 -88 -98 -117c0 -17 9 -28 29 -28c17 0 32 5 53 13l21 -70c-26 -15 -72 -32 -114 -32c-76 0 -105 35 -105 85c0 56 33 105 83 149h-46z" />
    <glyph glyph-name="iogonek" unicode="&#x12f;" horiz-adv-x="278" 
d="M224 529v-529c-66 -40 -97 -88 -97 -117c0 -17 9 -28 29 -28c17 0 32 5 53 13l21 -70c-26 -15 -72 -32 -114 -32c-76 0 -105 35 -105 85c0 56 33 105 83 149h-40v529h170zM44 660c0 55 43 83 98 83c58 0 99 -28 99 -83c0 -52 -41 -80 -99 -80c-54 0 -98 28 -98 80z" />
    <glyph glyph-name="Idotaccent" unicode="&#x130;" horiz-adv-x="289" 
d="M56 0v720h177v-720h-177zM43 851c0 55 43 83 98 83c58 0 99 -28 99 -83c0 -52 -41 -80 -99 -80c-54 0 -98 28 -98 80z" />
    <glyph glyph-name="dotlessi" unicode="&#x131;" horiz-adv-x="277" 
d="M224 529v-529h-170v529h170z" />
    <glyph glyph-name="IJ" unicode="&#x132;" horiz-adv-x="717" 
d="M56 0v720h177v-720h-177zM666 720v-519c0 -146 -67 -214 -200 -214c-54 0 -114 7 -151 21l12 141c23 -5 56 -11 87 -11c57 0 75 21 75 88v494h177z" />
    <glyph glyph-name="ij" unicode="&#x133;" horiz-adv-x="556" 
d="M44 660c0 55 43 83 98 83c58 0 99 -28 99 -83c0 -52 -41 -80 -99 -80c-54 0 -98 28 -98 80zM224 529v-529h-170v529h170zM503 529v-565c0 -108 -48 -168 -164 -168c-38 0 -71 4 -99 13l9 117c14 -3 28 -5 42 -5c29 0 43 10 43 52v556h169zM321 660c0 55 43 83 98 83
c58 0 99 -28 99 -83c0 -52 -41 -80 -99 -80c-54 0 -98 28 -98 80z" />
    <glyph glyph-name="Jcircumflex" unicode="&#x134;" horiz-adv-x="419" 
d="M368 720v-519c0 -146 -67 -214 -200 -214c-54 0 -114 7 -151 21l12 141c23 -5 56 -11 87 -11c57 0 75 21 75 88v494h177zM229 925h97l111 -119l-61 -50l-97 64l-96 -65l-63 53z" />
    <glyph glyph-name="jcircumflex" unicode="&#x135;" horiz-adv-x="275" 
d="M222 529v-565c0 -108 -48 -168 -164 -168c-38 0 -71 4 -99 13l9 117c14 -3 28 -5 42 -5c29 0 43 10 43 52v556h169zM83 765h97l113 -142l-63 -47l-97 84l-96 -84l-68 46z" />
    <glyph glyph-name="Kcommaaccent" unicode="&#x136;" horiz-adv-x="683" 
d="M56 0v720h177v-285h77l152 285h196l-197 -355l218 -365h-204l-168 290h-74v-290h-177zM238 -236l41 183l128 -33l-65 -180z" />
    <glyph glyph-name="kcommaaccent" unicode="&#x137;" horiz-adv-x="574" 
d="M219 720v-361h43l105 170h184l-156 -235l180 -294h-197l-128 222h-31v-222h-170v720h170zM192 -236l41 183l128 -33l-65 -180z" />
    <glyph glyph-name="kgreenlandic" unicode="&#x138;" horiz-adv-x="574" 
d="M213 529v-181h35l123 181h175l-166 -245l193 -284h-177l-152 216h-31v-216h-170v529h170z" />
    <glyph glyph-name="Lacute" unicode="&#x139;" horiz-adv-x="556" 
d="M56 720h177v-565h299v-155h-476v720zM26 826l184 113l57 -103l-195 -89z" />
    <glyph glyph-name="lacute" unicode="&#x13a;" horiz-adv-x="268" 
d="M219 0h-170v720h170v-720zM8 826l184 113l57 -103l-195 -89z" />
    <glyph glyph-name="Lcommaaccent" unicode="&#x13b;" horiz-adv-x="556" 
d="M56 720h177v-565h299v-155h-476v720zM177 -236l41 183l128 -33l-65 -180z" />
    <glyph glyph-name="lcommaaccent" unicode="&#x13c;" horiz-adv-x="268" 
d="M219 0h-170v720h170v-720zM22 -236l41 183l128 -33l-65 -180z" />
    <glyph glyph-name="Lcaron" unicode="&#x13d;" horiz-adv-x="556" 
d="M56 720h177v-565h299v-155h-476v720zM309 514l28 206h135l-55 -206h-108z" />
    <glyph glyph-name="lcaron" unicode="&#x13e;" horiz-adv-x="395" 
d="M219 0h-170v720h170v-720zM262 514l28 206h135l-55 -206h-108z" />
    <glyph glyph-name="Ldot" unicode="&#x13f;" horiz-adv-x="556" 
d="M56 720h177v-565h299v-155h-476v720zM323 382c0 55 43 83 98 83c58 0 99 -28 99 -83c0 -52 -41 -80 -99 -80c-54 0 -98 28 -98 80z" />
    <glyph glyph-name="ldot" unicode="&#x140;" horiz-adv-x="440" 
d="M214 0h-170v720h170v-720zM253 351c0 55 43 83 98 83c58 0 99 -28 99 -83c0 -52 -41 -80 -99 -80c-54 0 -98 28 -98 80z" />
    <glyph glyph-name="Lslash" unicode="&#x141;" horiz-adv-x="556" 
d="M56 720h177v-270l19 6l154 60v-125l-152 -59l-21 -7v-170h299v-155h-476v267l-3 -1l-66 -26v126l67 26h2v328z" />
    <glyph glyph-name="lslash" unicode="&#x142;" horiz-adv-x="343" 
d="M15 237v128l72 32v323h170v-266l71 32v-128l-71 -32v-326h-170v269z" />
    <glyph glyph-name="Nacute" unicode="&#x143;" horiz-adv-x="720" 
d="M56 0v720h154l279 -423v423h175v-720h-153l-281 414v-414h-174zM249 826l184 113l57 -103l-195 -89z" />
    <glyph glyph-name="nacute" unicode="&#x144;" horiz-adv-x="587" 
d="M49 529h140l15 -63c35 39 94 75 169 75c103 0 169 -63 169 -179v-362h-170v307c0 67 -23 93 -66 93c-41 0 -75 -27 -87 -41v-359h-170v529zM183 649l164 150l78 -95l-177 -129z" />
    <glyph glyph-name="Ncommaaccent" unicode="&#x145;" horiz-adv-x="720" 
d="M56 0v720h154l279 -423v423h175v-720h-153l-281 414v-414h-174zM262 -236l41 183l128 -33l-65 -180z" />
    <glyph glyph-name="ncommaaccent" unicode="&#x146;" horiz-adv-x="587" 
d="M49 529h140l15 -63c35 39 94 75 169 75c103 0 169 -63 169 -179v-362h-170v307c0 67 -23 93 -66 93c-41 0 -75 -27 -87 -41v-359h-170v529zM190 -236l41 183l128 -33l-65 -180z" />
    <glyph glyph-name="Ncaron" unicode="&#x147;" horiz-adv-x="720" 
d="M56 0v720h154l279 -423v423h175v-720h-153l-281 414v-414h-174zM408 762h-97l-111 119l61 50l97 -64l96 65l63 -53z" />
    <glyph glyph-name="ncaron" unicode="&#x148;" horiz-adv-x="587" 
d="M49 529h140l15 -63c35 39 94 75 169 75c103 0 169 -63 169 -179v-362h-170v307c0 67 -23 93 -66 93c-41 0 -75 -27 -87 -41v-359h-170v529zM342 581h-97l-113 142l66 49l96 -86l96 84l66 -46z" />
    <glyph glyph-name="napostrophe" unicode="&#x149;" horiz-adv-x="640" 
d="M102 529h140l15 -63c35 39 94 75 169 75c103 0 169 -63 169 -179v-362h-170v307c0 67 -23 93 -66 93c-41 0 -75 -27 -87 -41v-359h-170v529zM-12 655c0 36 27 63 65 63c49 0 74 -37 74 -82c0 -70 -35 -115 -112 -141l-21 43c39 16 57 39 59 66c-32 -9 -65 16 -65 51z" />
    <glyph glyph-name="Eng" unicode="&#x14a;" horiz-adv-x="719" 
d="M56 0v720h153l280 -434v434h174v-749c0 -110 -58 -175 -178 -175c-55 0 -106 9 -133 19l10 109c12 -4 42 -10 69 -10c42 0 62 22 62 73v38l-263 393v-418h-174z" />
    <glyph glyph-name="eng" unicode="&#x14b;" horiz-adv-x="581" 
d="M49 529h140l15 -63c35 39 94 75 159 75c113 0 173 -68 173 -184v-393c0 -108 -47 -168 -164 -168c-38 0 -71 4 -99 13l10 109c14 -3 27 -5 41 -5c30 0 43 10 43 52v352c0 71 -18 97 -64 97c-38 0 -66 -30 -84 -50v-364h-170v529z" />
    <glyph glyph-name="Omacron" unicode="&#x14c;" horiz-adv-x="783" 
d="M222 361c0 -129 58 -214 169 -214c112 0 170 84 170 214c0 122 -58 210 -170 210c-111 0 -169 -89 -169 -210zM36 361c0 227 137 371 355 371c219 0 356 -144 356 -371c0 -234 -137 -374 -356 -374c-218 0 -355 140 -355 374zM246 783v103h289v-103h-289z" />
    <glyph glyph-name="omacron" unicode="&#x14d;" horiz-adv-x="613" 
d="M208 265c0 -102 40 -139 99 -139c57 0 98 37 98 139c0 100 -40 139 -98 139c-59 0 -99 -43 -99 -139zM29 261c0 188 125 280 280 280s275 -91 275 -276s-124 -278 -285 -278c-164 0 -270 93 -270 274zM163 602v103h289v-103h-289z" />
    <glyph glyph-name="Obreve" unicode="&#x14e;" horiz-adv-x="783" 
d="M222 361c0 -129 58 -214 169 -214c112 0 170 84 170 214c0 122 -58 210 -170 210c-111 0 -169 -89 -169 -210zM36 361c0 227 137 371 355 371c219 0 356 -144 356 -371c0 -234 -137 -374 -356 -374c-218 0 -355 140 -355 374zM391 847c50 0 64 21 71 64l94 -14
c-8 -87 -59 -132 -165 -132c-107 0 -154 39 -168 132l97 14c8 -44 25 -64 71 -64z" />
    <glyph glyph-name="obreve" unicode="&#x14f;" horiz-adv-x="613" 
d="M208 265c0 -102 40 -139 99 -139c57 0 98 37 98 139c0 100 -40 139 -98 139c-59 0 -99 -43 -99 -139zM29 261c0 188 125 280 280 280s275 -91 275 -276s-124 -278 -285 -278c-164 0 -270 93 -270 274zM305 673c50 0 65 25 71 71l94 -14c-8 -89 -59 -139 -165 -139
c-107 0 -155 46 -168 139l97 15c7 -49 25 -72 71 -72z" />
    <glyph glyph-name="Ohungarumlaut" unicode="&#x150;" horiz-adv-x="783" 
d="M222 361c0 -129 58 -214 169 -214c112 0 170 84 170 214c0 122 -58 210 -170 210c-111 0 -169 -89 -169 -210zM36 361c0 227 137 371 355 371c219 0 356 -144 356 -371c0 -234 -137 -374 -356 -374c-218 0 -355 140 -355 374zM350 965l88 -64l-133 -153l-68 50zM524 950
l80 -71l-136 -132l-63 56z" />
    <glyph glyph-name="ohungarumlaut" unicode="&#x151;" horiz-adv-x="613" 
d="M208 265c0 -102 40 -139 99 -139c57 0 98 37 98 139c0 100 -40 139 -98 139c-59 0 -99 -43 -99 -139zM29 261c0 188 125 280 280 280s275 -91 275 -276s-124 -278 -285 -278c-164 0 -270 93 -270 274zM273 779l85 -57l-123 -144l-71 47zM433 766l84 -59l-126 -130l-67 48
z" />
    <glyph glyph-name="OE" unicode="&#x152;" horiz-adv-x="1095" 
d="M574 0v88c-40 -63 -122 -100 -222 -100c-188 0 -316 128 -316 374c0 243 137 371 331 371c92 0 168 -38 207 -98v85h482v-156h-322v-129h292v-146h-292v-134h326v-155h-486zM222 362c0 -129 58 -214 169 -214c103 0 169 73 169 214c0 135 -62 210 -169 210
c-111 0 -169 -89 -169 -210z" />
    <glyph glyph-name="oe" unicode="&#x153;" horiz-adv-x="931" 
d="M841 160l44 -106c-64 -42 -137 -67 -213 -67c-97 0 -157 41 -192 85c-39 -45 -97 -85 -198 -85c-147 0 -253 93 -253 274c0 188 125 280 268 280c95 0 151 -40 188 -93c30 44 95 93 188 93c145 0 232 -82 232 -250c0 -15 -1 -60 -3 -72h-326c7 -49 35 -98 109 -98
c49 0 91 11 156 39zM208 265c0 -102 40 -139 99 -139c57 0 98 37 98 139c0 100 -40 139 -98 139c-59 0 -99 -43 -99 -139zM576 317h168c-1 58 -19 98 -78 98c-64 0 -90 -56 -90 -98z" />
    <glyph glyph-name="Racute" unicode="&#x154;" horiz-adv-x="666" 
d="M56 720h281c181 0 275 -93 275 -234c0 -93 -37 -157 -110 -199l149 -287h-192l-121 246c-19 -3 -36 -4 -56 -4h-49v-242h-177v720zM328 568h-95v-186h90c72 0 109 34 109 96s-34 90 -104 90zM183 826l184 113l57 -103l-195 -89z" />
    <glyph glyph-name="racute" unicode="&#x155;" horiz-adv-x="375" 
d="M182 529l18 -71c25 47 68 83 114 83c21 0 40 -5 56 -12l-12 -152c-19 6 -33 8 -54 8c-33 0 -69 -26 -85 -47v-338h-170v529h133zM103 649l164 150l78 -95l-177 -129z" />
    <glyph glyph-name="Rcommaaccent" unicode="&#x156;" horiz-adv-x="666" 
d="M56 720h281c181 0 275 -93 275 -234c0 -93 -37 -157 -110 -199l149 -287h-192l-121 246c-19 -3 -36 -4 -56 -4h-49v-242h-177v720zM328 568h-95v-186h90c72 0 109 34 109 96s-34 90 -104 90zM229 -236l41 183l128 -33l-65 -180z" />
    <glyph glyph-name="rcommaaccent" unicode="&#x157;" horiz-adv-x="375" 
d="M182 529l18 -71c25 47 68 83 114 83c21 0 40 -5 56 -12l-12 -152c-19 6 -33 8 -54 8c-33 0 -69 -26 -85 -47v-338h-170v529h133zM21 -236l41 183l128 -33l-65 -180z" />
    <glyph glyph-name="Rcaron" unicode="&#x158;" horiz-adv-x="666" 
d="M56 720h281c181 0 275 -93 275 -234c0 -93 -37 -157 -110 -199l149 -287h-192l-121 246c-19 -3 -36 -4 -56 -4h-49v-242h-177v720zM328 568h-95v-186h90c72 0 109 34 109 96s-34 90 -104 90zM347 762h-97l-111 119l61 50l97 -64l96 65l63 -53z" />
    <glyph glyph-name="rcaron" unicode="&#x159;" horiz-adv-x="375" 
d="M182 529l18 -71c25 47 68 83 114 83c21 0 40 -5 56 -12l-12 -152c-19 6 -33 8 -54 8c-33 0 -69 -26 -85 -47v-338h-170v529h133zM260 581h-97l-113 142l66 49l96 -86l96 84l66 -46z" />
    <glyph glyph-name="Sacute" unicode="&#x15a;" horiz-adv-x="614" 
d="M16 113l86 108c66 -52 143 -88 206 -88c55 0 87 26 87 69c0 42 -25 61 -140 94c-146 42 -209 100 -209 215c0 152 117 221 264 221c95 0 187 -35 259 -100l-81 -108c-53 40 -115 66 -174 66c-52 0 -86 -20 -86 -60c0 -47 41 -60 160 -99c133 -43 191 -95 191 -210
c0 -147 -104 -234 -269 -234c-118 0 -217 44 -294 126zM201 826l184 113l57 -103l-195 -89z" />
    <glyph glyph-name="sacute" unicode="&#x15b;" horiz-adv-x="519" 
d="M18 84l69 94c50 -36 122 -63 163 -63c38 0 53 14 53 34c0 26 -16 36 -90 54c-110 26 -167 69 -167 165c0 106 86 173 220 173c88 0 162 -30 222 -85l-70 -91c-53 31 -100 51 -141 51c-34 0 -52 -10 -52 -32c0 -24 25 -32 100 -54c108 -32 161 -69 161 -163
c0 -116 -85 -180 -220 -180c-103 0 -193 42 -248 97zM149 649l164 150l78 -95l-177 -129z" />
    <glyph glyph-name="Scircumflex" unicode="&#x15c;" horiz-adv-x="614" 
d="M16 113l86 108c66 -52 143 -88 206 -88c55 0 87 26 87 69c0 42 -25 61 -140 94c-146 42 -209 100 -209 215c0 152 117 221 264 221c95 0 187 -35 259 -100l-81 -108c-53 40 -115 66 -174 66c-52 0 -86 -20 -86 -60c0 -47 41 -60 160 -99c133 -43 191 -95 191 -210
c0 -147 -104 -234 -269 -234c-118 0 -217 44 -294 126zM261 925h97l111 -119l-61 -50l-97 64l-96 -65l-63 53z" />
    <glyph glyph-name="scircumflex" unicode="&#x15d;" horiz-adv-x="519" 
d="M18 84l69 94c50 -36 122 -63 163 -63c38 0 53 14 53 34c0 26 -16 36 -90 54c-110 26 -167 69 -167 165c0 106 86 173 220 173c88 0 162 -30 222 -85l-70 -91c-53 31 -100 51 -141 51c-34 0 -52 -10 -52 -32c0 -24 25 -32 100 -54c108 -32 161 -69 161 -163
c0 -116 -85 -180 -220 -180c-103 0 -193 42 -248 97zM220 765h97l113 -142l-63 -47l-97 84l-96 -84l-68 46z" />
    <glyph glyph-name="Scedilla" unicode="&#x15e;" horiz-adv-x="614" 
d="M211 -209l12 63c19 -6 43 -11 66 -11c28 0 45 6 45 29c0 25 -21 32 -63 32h-19l16 85c-100 9 -184 52 -252 124l86 108c66 -52 143 -88 206 -88c55 0 87 26 87 69c0 42 -25 61 -140 94c-146 42 -209 100 -209 215c0 152 117 221 264 221c95 0 187 -35 259 -100l-81 -108
c-53 40 -115 66 -174 66c-52 0 -86 -20 -86 -60c0 -47 41 -60 160 -99c133 -43 191 -95 191 -210c0 -141 -95 -226 -248 -233l-6 -33c52 -4 96 -24 96 -81c0 -62 -41 -100 -116 -100c-39 0 -76 9 -94 17z" />
    <glyph glyph-name="scedilla" unicode="&#x15f;" horiz-adv-x="519" 
d="M156 -209l12 63c19 -6 43 -11 66 -11c28 0 45 6 45 29c0 25 -21 32 -63 32h-19l17 86c-79 11 -147 47 -196 94l69 94c50 -36 122 -63 163 -63c38 0 53 14 53 34c0 26 -19 34 -93 52c-110 26 -167 71 -167 165c0 108 87 175 223 175c88 0 165 -34 223 -83l-68 -91
c-53 31 -103 49 -144 49c-34 0 -51 -10 -51 -32c0 -24 26 -31 101 -53c108 -32 160 -70 160 -164c0 -112 -81 -176 -211 -180l-6 -32c52 -4 96 -24 96 -81c0 -62 -41 -100 -116 -100c-39 0 -76 9 -94 17z" />
    <glyph glyph-name="Scaron" unicode="&#x160;" horiz-adv-x="614" 
d="M16 113l86 108c66 -52 143 -88 206 -88c55 0 87 26 87 69c0 42 -25 61 -140 94c-146 42 -209 100 -209 215c0 152 117 221 264 221c95 0 187 -35 259 -100l-81 -108c-53 40 -115 66 -174 66c-52 0 -86 -20 -86 -60c0 -47 41 -60 160 -99c133 -43 191 -95 191 -210
c0 -147 -104 -234 -269 -234c-118 0 -217 44 -294 126zM362 762h-97l-111 119l61 50l97 -64l96 65l63 -53z" />
    <glyph glyph-name="scaron" unicode="&#x161;" horiz-adv-x="519" 
d="M18 84l69 94c50 -36 122 -63 163 -63c38 0 53 14 53 34c0 26 -16 36 -90 54c-110 26 -167 69 -167 165c0 106 86 173 220 173c88 0 162 -30 222 -85l-70 -91c-53 31 -100 51 -141 51c-34 0 -52 -10 -52 -32c0 -24 25 -32 100 -54c108 -32 161 -69 161 -163
c0 -116 -85 -180 -220 -180c-103 0 -193 42 -248 97zM304 581h-97l-113 142l66 49l96 -86l96 84l66 -46z" />
    <glyph glyph-name="Scommaaccent" unicode="&#x218;" horiz-adv-x="614" 
d="M16 113l86 108c66 -52 143 -88 206 -88c55 0 87 26 87 69c0 42 -25 61 -140 94c-146 42 -209 100 -209 215c0 152 117 221 264 221c95 0 187 -35 259 -100l-81 -108c-53 40 -115 66 -174 66c-52 0 -86 -20 -86 -60c0 -47 41 -60 160 -99c133 -43 191 -95 191 -210
c0 -147 -104 -234 -269 -234c-118 0 -217 44 -294 126zM205 -236l41 183l128 -33l-65 -180z" />
    <glyph glyph-name="scommaaccent" unicode="&#x219;" horiz-adv-x="519" 
d="M18 84l69 94c50 -36 122 -63 163 -63c38 0 53 14 53 34c0 26 -16 36 -90 54c-110 26 -167 69 -167 165c0 106 86 173 220 173c88 0 162 -30 222 -85l-70 -91c-53 31 -100 51 -141 51c-34 0 -52 -10 -52 -32c0 -24 25 -32 100 -54c108 -32 161 -69 161 -163
c0 -116 -85 -180 -220 -180c-103 0 -193 42 -248 97zM155 -236l41 183l128 -33l-65 -180z" />
    <glyph glyph-name="uni021A" unicode="&#x21a;" horiz-adv-x="623" 
d="M223 0v564h-208v156h593v-156h-208v-564h-177zM199 -236l41 183l128 -33l-65 -180z" />
    <glyph glyph-name="uni021B" unicode="&#x21b;" horiz-adv-x="358" 
d="M338 406h-86v-254c0 -27 11 -37 35 -37c15 0 29 3 43 7l15 -114c-42 -14 -82 -21 -127 -21c-94 0 -135 51 -135 133v286h-72v96l75 26l16 158h150v-157h86v-123zM108 -236l41 183l128 -33l-65 -180z" />
    <glyph glyph-name="Tcaron" unicode="&#x164;" horiz-adv-x="623" 
d="M223 0v564h-208v156h593v-156h-208v-564h-177zM361 762h-97l-111 119l61 50l97 -64l96 65l63 -53z" />
    <glyph glyph-name="tcaron" unicode="&#x165;" horiz-adv-x="381" 
d="M338 406h-86v-254c0 -27 11 -37 35 -37c15 0 29 3 43 7l15 -114c-42 -14 -82 -21 -127 -21c-94 0 -135 51 -135 133v286h-72v96l75 26l16 158h150v-157h86v-123zM288 586l28 206h135l-55 -206h-108z" />
    <glyph glyph-name="Tbar" unicode="&#x166;" horiz-adv-x="623" 
d="M110 281v123h113v160h-208v156h593v-156h-208v-160h110v-123h-110v-281h-177v281h-113z" />
    <glyph glyph-name="tbar" unicode="&#x167;" horiz-adv-x="358" 
d="M338 406h-86v-68h86v-108h-86v-78c0 -27 11 -37 35 -37c15 0 29 3 43 7l15 -114c-42 -14 -82 -21 -127 -21c-94 0 -135 51 -135 133v110h-72v108h72v68h-72v96l75 26l16 158h150v-157h86v-123z" />
    <glyph glyph-name="uni0162" unicode="&#x162;" horiz-adv-x="623" 
d="M223 0v564h-208v156h593v-156h-208v-564h-61l-9 -45c52 -4 96 -24 96 -81c0 -62 -41 -100 -116 -100c-39 0 -76 9 -94 17l12 63c19 -6 43 -11 66 -11c28 0 45 6 45 29c0 25 -21 32 -63 32h-19l19 96h-53z" />
    <glyph glyph-name="uni0163" unicode="&#x163;" horiz-adv-x="358" 
d="M109 -209l12 63c19 -6 43 -11 66 -11c28 0 45 6 45 29c0 25 -21 32 -63 32h-19l17 89c-58 16 -84 61 -84 127v286h-72v96l75 26l16 158h150v-157h84v-123h-84v-254c0 -27 11 -37 35 -37c15 0 29 3 43 7l15 -114c-39 -13 -75 -20 -116 -21l-6 -32c52 -4 96 -24 96 -81
c0 -62 -41 -100 -116 -100c-39 0 -76 9 -94 17z" />
    <glyph glyph-name="Utilde" unicode="&#x168;" horiz-adv-x="698" 
d="M51 720h177v-440c0 -93 48 -136 120 -136c82 0 122 43 122 136v440h177v-444c0 -193 -110 -288 -299 -288c-188 0 -297 88 -297 288v444zM458 910l70 -28c-14 -57 -35 -105 -95 -105c-47 0 -102 33 -129 33c-17 0 -26 -9 -39 -38l-73 28c16 60 48 106 97 106
c52 0 97 -34 129 -34c18 0 25 6 40 38z" />
    <glyph glyph-name="utilde" unicode="&#x169;" horiz-adv-x="582" 
d="M533 0h-136l-18 63c-40 -44 -88 -76 -162 -76c-119 0 -172 66 -172 180v362h171v-320c0 -53 16 -83 62 -83c37 0 67 17 86 39v364h169v-529zM387 726l70 -28c-14 -57 -35 -105 -95 -105c-47 0 -102 33 -129 33c-17 0 -26 -9 -39 -38l-73 28c16 60 48 106 97 106
c52 0 97 -34 129 -34c18 0 25 6 40 38z" />
    <glyph glyph-name="Umacron" unicode="&#x16a;" horiz-adv-x="698" 
d="M51 720h177v-440c0 -93 48 -136 120 -136c82 0 122 43 122 136v440h177v-444c0 -193 -110 -288 -299 -288c-188 0 -297 88 -297 288v444zM203 783v103h289v-103h-289z" />
    <glyph glyph-name="umacron" unicode="&#x16b;" horiz-adv-x="582" 
d="M533 0h-136l-18 63c-40 -44 -88 -76 -162 -76c-119 0 -172 66 -172 180v362h171v-320c0 -53 16 -83 62 -83c37 0 67 17 86 39v364h169v-529zM148 602v103h289v-103h-289z" />
    <glyph glyph-name="Ubreve" unicode="&#x16c;" horiz-adv-x="698" 
d="M51 720h177v-440c0 -93 48 -136 120 -136c82 0 122 43 122 136v440h177v-444c0 -193 -110 -288 -299 -288c-188 0 -297 88 -297 288v444zM352 847c50 0 64 21 71 64l94 -14c-8 -87 -59 -132 -165 -132c-107 0 -154 39 -168 132l97 14c8 -44 25 -64 71 -64z" />
    <glyph glyph-name="ubreve" unicode="&#x16d;" horiz-adv-x="582" 
d="M533 0h-136l-18 63c-40 -44 -88 -76 -162 -76c-119 0 -172 66 -172 180v362h171v-320c0 -53 16 -83 62 -83c37 0 67 17 86 39v364h169v-529zM290 673c50 0 65 25 71 71l94 -14c-8 -89 -59 -139 -165 -139c-107 0 -155 46 -168 139l97 15c7 -49 25 -72 71 -72z" />
    <glyph glyph-name="Uring" unicode="&#x16e;" horiz-adv-x="698" 
d="M51 720h177v-440c0 -93 48 -136 120 -136c82 0 122 43 122 136v440h177v-444c0 -193 -110 -288 -299 -288c-188 0 -297 88 -297 288v444zM312 842c0 -24 16 -37 40 -37c21 0 38 15 38 38s-16 36 -38 36c-24 0 -40 -15 -40 -37zM241 839c0 65 48 104 111 104
c61 0 109 -36 109 -100c0 -63 -48 -102 -109 -102c-67 0 -111 34 -111 98z" />
    <glyph glyph-name="uring" unicode="&#x16f;" horiz-adv-x="582" 
d="M533 0h-136l-18 63c-40 -44 -88 -76 -162 -76c-119 0 -172 66 -172 180v362h171v-320c0 -53 16 -83 62 -83c37 0 67 17 86 39v364h169v-529zM252 676c0 -24 16 -37 40 -37c21 0 38 15 38 38s-16 36 -38 36c-24 0 -40 -15 -40 -37zM181 673c0 65 48 104 111 104
c61 0 109 -36 109 -100c0 -63 -48 -102 -109 -102c-67 0 -111 34 -111 98z" />
    <glyph glyph-name="Uhungarumlaut" unicode="&#x170;" horiz-adv-x="698" 
d="M51 720h177v-440c0 -93 48 -136 120 -136c82 0 122 43 122 136v440h177v-444c0 -193 -110 -288 -299 -288c-188 0 -297 88 -297 288v444zM307 965l88 -64l-133 -153l-68 50zM481 950l80 -71l-136 -132l-63 56z" />
    <glyph glyph-name="uhungarumlaut" unicode="&#x171;" horiz-adv-x="582" 
d="M533 0h-136l-18 63c-40 -44 -88 -76 -162 -76c-119 0 -172 66 -172 180v362h171v-320c0 -53 16 -83 62 -83c37 0 67 17 86 39v364h169v-529zM253 779l85 -57l-123 -144l-71 47zM413 766l84 -59l-126 -130l-67 48z" />
    <glyph glyph-name="Uogonek" unicode="&#x172;" horiz-adv-x="697" 
d="M51 720h177v-440c0 -93 48 -136 120 -136c82 0 122 43 122 136v440h177v-444c0 -141 -58 -212 -153 -270c-55 -34 -89 -85 -89 -115c0 -25 9 -36 29 -36c17 0 32 5 53 13l21 -70c-26 -15 -72 -32 -114 -32c-76 0 -105 35 -105 85c0 51 27 96 70 137h-11
c-188 0 -297 88 -297 288v444z" />
    <glyph glyph-name="uogonek" unicode="&#x173;" horiz-adv-x="582" 
d="M533 0c-55 -42 -83 -88 -83 -117c0 -17 9 -28 29 -28c17 0 32 5 53 13l21 -70c-26 -15 -72 -32 -114 -32c-76 0 -105 35 -105 85c0 56 37 105 83 149h-20l-18 63c-40 -44 -88 -76 -162 -76c-119 0 -172 66 -172 180v362h171v-320c0 -53 16 -83 62 -83c37 0 67 17 86 39
v364h169v-529z" />
    <glyph glyph-name="Wcircumflex" unicode="&#x174;" horiz-adv-x="930" 
d="M180 0l-177 720h181l105 -489l97 489h158l100 -490l101 490h182l-178 -720h-183l-101 444l-96 -444h-189zM415 925h97l111 -119l-61 -50l-97 64l-96 -65l-63 53z" />
    <glyph glyph-name="wcircumflex" unicode="&#x175;" horiz-adv-x="796" 
d="M621 529h169l-143 -529h-185l-65 303l-63 -303h-185l-143 529h168l75 -343l68 343h160l80 -343zM348 765h97l113 -142l-63 -47l-97 84l-96 -84l-68 46z" />
    <glyph glyph-name="Wgrave" unicode="&#x1e80;" horiz-adv-x="930" 
d="M180 0l-177 720h181l105 -489l97 489h158l100 -490l101 490h182l-178 -720h-183l-101 444l-96 -444h-189zM396 939l183 -113l-46 -79l-195 89z" />
    <glyph glyph-name="wgrave" unicode="&#x1e81;" horiz-adv-x="796" 
d="M621 529h169l-143 -529h-185l-65 303l-63 -303h-185l-143 529h168l75 -343l68 343h160l80 -343zM357 795l159 -143l-65 -77l-174 126z" />
    <glyph glyph-name="Wacute" unicode="&#x1e82;" horiz-adv-x="930" 
d="M180 0l-177 720h181l105 -489l97 489h158l100 -490l101 490h182l-178 -720h-183l-101 444l-96 -444h-189zM338 826l184 113l57 -103l-195 -89z" />
    <glyph glyph-name="wacute" unicode="&#x1e83;" horiz-adv-x="796" 
d="M621 529h169l-143 -529h-185l-65 303l-63 -303h-185l-143 529h168l75 -343l68 343h160l80 -343zM264 649l164 150l78 -95l-177 -129z" />
    <glyph glyph-name="Wdieresis" unicode="&#x1e84;" horiz-adv-x="930" 
d="M180 0l-177 720h181l105 -489l97 489h158l100 -490l101 490h182l-178 -720h-183l-101 444l-96 -444h-189zM490 838c0 40 29 72 81 72c57 0 82 -32 82 -72c0 -41 -33 -70 -81 -70c-54 0 -82 28 -82 70zM268 838c0 40 31 72 82 72c56 0 81 -32 81 -72
c0 -41 -32 -70 -80 -70c-55 0 -83 28 -83 70z" />
    <glyph glyph-name="wdieresis" unicode="&#x1e85;" horiz-adv-x="796" 
d="M621 529h169l-143 -529h-185l-65 303l-63 -303h-185l-143 529h168l75 -343l68 343h160l80 -343zM425 660c0 40 29 72 81 72c57 0 82 -32 82 -72c0 -41 -33 -70 -81 -70c-54 0 -82 28 -82 70zM203 660c0 40 31 72 82 72c56 0 81 -32 81 -72c0 -41 -32 -70 -80 -70
c-55 0 -83 28 -83 70z" />
    <glyph glyph-name="Ygrave" unicode="&#x1ef2;" horiz-adv-x="669" 
d="M241 0v276l-241 444h193l138 -270l140 270h198l-251 -444v-276h-177zM266 939l183 -113l-46 -79l-195 89z" />
    <glyph glyph-name="ygrave" unicode="&#x1ef3;" horiz-adv-x="557" 
d="M382 529h169l-182 -501c-57 -157 -87 -232 -220 -232c-45 0 -85 7 -111 13l12 118c17 -2 44 -6 74 -6c34 0 55 8 70 60l4 14l-192 534h177l99 -364zM212 795l159 -143l-65 -77l-174 126z" />
    <glyph glyph-name="Ycircumflex" unicode="&#x176;" horiz-adv-x="669" 
d="M241 0v276l-241 444h193l138 -270l140 270h198l-251 -444v-276h-177zM285 925h97l111 -119l-61 -50l-97 64l-96 -65l-63 53z" />
    <glyph glyph-name="ycircumflex" unicode="&#x177;" horiz-adv-x="557" 
d="M382 529h169l-182 -501c-57 -157 -87 -232 -220 -232c-45 0 -85 7 -111 13l12 118c17 -2 44 -6 74 -6c34 0 55 8 70 60l4 14l-192 534h177l99 -364zM235 765h97l113 -142l-63 -47l-97 84l-96 -84l-68 46z" />
    <glyph glyph-name="Ydieresis" unicode="&#x178;" horiz-adv-x="669" 
d="M241 0v276l-241 444h193l138 -270l140 270h198l-251 -444v-276h-177zM360 838c0 40 29 72 81 72c57 0 82 -32 82 -72c0 -41 -33 -70 -81 -70c-54 0 -82 28 -82 70zM138 838c0 40 31 72 82 72c56 0 81 -32 81 -72c0 -41 -32 -70 -80 -70c-55 0 -83 28 -83 70z" />
    <glyph glyph-name="Zacute" unicode="&#x179;" horiz-adv-x="632" 
d="M25 0v111l312 453h-297v156h565v-69l-341 -496h340v-155h-579zM202 826l184 113l57 -103l-195 -89z" />
    <glyph glyph-name="zacute" unicode="&#x17a;" horiz-adv-x="472" 
d="M29 0v103l202 302h-197v124h414v-70l-218 -335h218v-124h-419zM127 649l164 150l78 -95l-177 -129z" />
    <glyph glyph-name="Zdotaccent" unicode="&#x17b;" horiz-adv-x="632" 
d="M25 0v111l312 453h-297v156h565v-69l-341 -496h340v-155h-579zM217 851c0 55 43 83 98 83c58 0 99 -28 99 -83c0 -52 -41 -80 -99 -80c-54 0 -98 28 -98 80z" />
    <glyph glyph-name="zdotaccent" unicode="&#x17c;" horiz-adv-x="472" 
d="M29 0v103l202 302h-197v124h414v-70l-218 -335h218v-124h-419zM144 660c0 55 43 83 98 83c58 0 99 -28 99 -83c0 -52 -41 -80 -99 -80c-54 0 -98 28 -98 80z" />
    <glyph glyph-name="Zcaron" unicode="&#x17d;" horiz-adv-x="632" 
d="M25 0v111l312 453h-297v156h565v-69l-341 -496h340v-155h-579zM366 762h-97l-111 119l61 50l97 -64l96 65l63 -53z" />
    <glyph glyph-name="zcaron" unicode="&#x17e;" horiz-adv-x="472" 
d="M29 0v103l202 302h-197v124h414v-70l-218 -335h218v-124h-419zM288 581h-97l-113 142l66 49l96 -86l96 84l66 -46z" />
    <glyph glyph-name="Jcircumflex.alt" horiz-adv-x="419" 
d="M368 720v-488c0 -141 -51 -232 -273 -232h-80v151h58c100 0 118 21 118 96v473h177zM233 925h97l111 -119l-61 -50l-97 64l-96 -65l-63 53z" />
    <glyph glyph-name="jcircumflex.alt" horiz-adv-x="275" 
d="M222 529v-542c0 -131 -48 -191 -201 -191h-62v131h35c45 0 59 13 59 59v543h169zM90 765h97l113 -142l-63 -47l-97 84l-96 -84l-68 46z" />
    <glyph glyph-name="ygrave.alt" horiz-adv-x="557" 
d="M382 529h169l-183 -517v-68c0 -129 -52 -144 -189 -144h-68v133h59c23 0 32 6 32 29v44l-196 523h177l99 -358zM226 795l159 -143l-65 -77l-174 126z" />
    <glyph glyph-name="ycircumflex.alt" horiz-adv-x="557" 
d="M382 529h169l-183 -517v-68c0 -129 -52 -144 -189 -144h-68v133h59c23 0 32 6 32 29v44l-196 523h177l99 -358zM235 765h97l113 -142l-63 -47l-97 84l-96 -84l-68 46z" />
    <glyph glyph-name="ydieresis.alt" horiz-adv-x="557" 
d="M382 529h169l-183 -517v-68c0 -129 -52 -144 -189 -144h-68v133h59c23 0 32 6 32 29v44l-196 523h177l99 -358zM313 660c0 40 29 72 81 72c57 0 82 -32 82 -72c0 -41 -33 -70 -81 -70c-54 0 -82 28 -82 70zM91 660c0 40 31 72 82 72c56 0 81 -32 81 -72
c0 -41 -32 -70 -80 -70c-55 0 -83 28 -83 70z" />
    <glyph glyph-name="yacute.alt" horiz-adv-x="557" 
d="M382 529h169l-183 -517v-68c0 -129 -52 -144 -189 -144h-68v133h59c23 0 32 6 32 29v44l-196 523h177l99 -358zM191 639l164 150l78 -95l-177 -129z" />
    <glyph glyph-name="agrave.alt" horiz-adv-x="611" 
d="M416 0l-10 64c-28 -39 -79 -77 -159 -77c-146 0 -218 102 -218 276c0 186 103 278 225 278c59 0 119 -24 160 -71l12 59h139v-529h-149zM395 171v189c-17 18 -50 41 -92 41c-60 0 -95 -42 -95 -136c0 -80 24 -139 97 -139c41 0 72 24 90 45zM265 795l159 -143l-65 -77
l-174 126z" />
    <glyph glyph-name="a.alt" horiz-adv-x="611" 
d="M416 0l-10 64c-28 -39 -79 -77 -159 -77c-146 0 -218 102 -218 276c0 186 103 278 225 278c59 0 119 -24 160 -71l12 59h139v-529h-149zM395 171v189c-17 18 -50 41 -92 41c-60 0 -95 -42 -95 -136c0 -80 24 -139 97 -139c41 0 72 24 90 45z" />
    <glyph glyph-name="aacute.alt" horiz-adv-x="611" 
d="M416 0l-10 64c-28 -39 -79 -77 -159 -77c-146 0 -218 102 -218 276c0 186 103 278 225 278c59 0 119 -24 160 -71l12 59h139v-529h-149zM395 171v189c-17 18 -50 41 -92 41c-60 0 -95 -42 -95 -136c0 -80 24 -139 97 -139c41 0 72 24 90 45zM216 649l164 150l78 -95
l-177 -129z" />
    <glyph glyph-name="acircumflex.alt" horiz-adv-x="611" 
d="M416 0l-10 64c-28 -39 -79 -77 -159 -77c-146 0 -218 102 -218 276c0 186 103 278 225 278c59 0 119 -24 160 -71l12 59h139v-529h-149zM395 171v189c-17 18 -50 41 -92 41c-60 0 -95 -42 -95 -136c0 -80 24 -139 97 -139c41 0 72 24 90 45zM259 765h97l113 -142l-63 -47
l-97 84l-96 -84l-68 46z" />
    <glyph glyph-name="atilde.alt" horiz-adv-x="611" 
d="M416 0l-10 64c-28 -39 -79 -77 -159 -77c-146 0 -218 102 -218 276c0 186 103 278 225 278c59 0 119 -24 160 -71l12 59h139v-529h-149zM395 171v189c-17 18 -50 41 -92 41c-60 0 -95 -42 -95 -136c0 -80 24 -139 97 -139c41 0 72 24 90 45zM407 726l70 -28
c-14 -57 -35 -105 -95 -105c-47 0 -102 33 -129 33c-17 0 -26 -9 -39 -38l-73 28c16 60 48 106 97 106c52 0 97 -34 129 -34c18 0 25 6 40 38z" />
    <glyph glyph-name="adieresis.alt" horiz-adv-x="611" 
d="M416 0l-10 64c-28 -39 -79 -77 -159 -77c-146 0 -218 102 -218 276c0 186 103 278 225 278c59 0 119 -24 160 -71l12 59h139v-529h-149zM395 171v189c-17 18 -50 41 -92 41c-60 0 -95 -42 -95 -136c0 -80 24 -139 97 -139c41 0 72 24 90 45zM346 660c0 40 29 72 81 72
c57 0 82 -32 82 -72c0 -41 -33 -70 -81 -70c-54 0 -82 28 -82 70zM124 660c0 40 31 72 82 72c56 0 81 -32 81 -72c0 -41 -32 -70 -80 -70c-55 0 -83 28 -83 70z" />
    <glyph glyph-name="aring.alt" horiz-adv-x="611" 
d="M416 0l-10 64c-28 -39 -79 -77 -159 -77c-146 0 -218 102 -218 276c0 186 103 278 225 278c59 0 119 -24 160 -71l12 59h139v-529h-149zM395 171v189c-17 18 -50 41 -92 41c-60 0 -95 -42 -95 -136c0 -80 24 -139 97 -139c41 0 72 24 90 45zM273 676c0 -24 16 -37 40 -37
c21 0 38 15 38 38s-16 36 -38 36c-24 0 -40 -15 -40 -37zM202 673c0 65 48 104 111 104c61 0 109 -36 109 -100c0 -63 -48 -102 -109 -102c-67 0 -111 34 -111 98z" />
    <glyph glyph-name="amacron.alt" horiz-adv-x="611" 
d="M416 0l-10 64c-28 -39 -79 -77 -159 -77c-146 0 -218 102 -218 276c0 186 103 278 225 278c59 0 119 -24 160 -71l12 59h139v-529h-149zM395 171v189c-17 18 -50 41 -92 41c-60 0 -95 -42 -95 -136c0 -80 24 -139 97 -139c41 0 72 24 90 45zM170 602v103h289v-103h-289z
" />
    <glyph glyph-name="abreve.alt" horiz-adv-x="611" 
d="M416 0l-10 64c-28 -39 -79 -77 -159 -77c-146 0 -218 102 -218 276c0 186 103 278 225 278c59 0 119 -24 160 -71l12 59h139v-529h-149zM395 171v189c-17 18 -50 41 -92 41c-60 0 -95 -42 -95 -136c0 -80 24 -139 97 -139c41 0 72 24 90 45zM307 673c50 0 65 25 71 71
l94 -14c-8 -89 -59 -139 -165 -139c-107 0 -155 46 -168 139l97 15c7 -49 25 -72 71 -72z" />
    <glyph glyph-name="aogonek.alt" horiz-adv-x="611" 
d="M416 0l-10 64c-28 -39 -79 -77 -159 -77c-146 0 -218 102 -218 276c0 186 103 278 225 278c59 0 119 -24 160 -71l12 59h139v-529c-58 -44 -83 -86 -83 -117c0 -17 9 -28 29 -28c17 0 32 5 53 13l21 -70c-26 -15 -72 -32 -114 -32c-76 0 -105 35 -105 85
c0 56 33 105 83 149h-33zM395 171v189c-17 18 -50 41 -92 41c-60 0 -95 -42 -95 -136c0 -80 24 -139 97 -139c41 0 72 24 90 45z" />
    <glyph glyph-name="gcircumflex.alt" horiz-adv-x="615" 
d="M565 529v-490c0 -187 -92 -239 -285 -239h-153v131h142c97 0 133 16 133 104v31c-37 -47 -93 -71 -155 -71c-133 0 -218 86 -218 260c0 172 80 286 228 286c71 0 125 -36 157 -71l12 59h139zM395 173v186c-15 17 -53 42 -95 42c-58 0 -92 -44 -92 -136
c0 -84 29 -133 96 -133c42 0 72 21 91 41zM261 765h97l113 -142l-63 -47l-97 84l-96 -84l-68 46z" />
    <glyph glyph-name="g.alt" horiz-adv-x="615" 
d="M565 529v-490c0 -187 -92 -239 -285 -239h-153v131h142c97 0 133 16 133 104v31c-37 -47 -93 -71 -155 -71c-133 0 -218 86 -218 260c0 172 80 286 228 286c71 0 125 -36 157 -71l12 59h139zM395 173v186c-15 17 -53 42 -95 42c-58 0 -92 -44 -92 -136
c0 -84 29 -133 96 -133c42 0 72 21 91 41z" />
    <glyph glyph-name="gbreve.alt" horiz-adv-x="615" 
d="M565 529v-490c0 -187 -92 -239 -285 -239h-153v131h142c97 0 133 16 133 104v31c-37 -47 -93 -71 -155 -71c-133 0 -218 86 -218 260c0 172 80 286 228 286c71 0 125 -36 157 -71l12 59h139zM395 173v186c-15 17 -53 42 -95 42c-58 0 -92 -44 -92 -136
c0 -84 29 -133 96 -133c42 0 72 21 91 41zM304 673c50 0 65 25 71 71l94 -14c-8 -89 -59 -139 -165 -139c-107 0 -155 46 -168 139l97 15c7 -49 25 -72 71 -72z" />
    <glyph glyph-name="gdotaccent.alt" horiz-adv-x="615" 
d="M565 529v-490c0 -187 -92 -239 -285 -239h-153v131h142c97 0 133 16 133 104v31c-37 -47 -93 -71 -155 -71c-133 0 -218 86 -218 260c0 172 80 286 228 286c71 0 125 -36 157 -71l12 59h139zM395 173v186c-15 17 -53 42 -95 42c-58 0 -92 -44 -92 -136
c0 -84 29 -133 96 -133c42 0 72 21 91 41zM205 660c0 55 43 83 98 83c58 0 99 -28 99 -83c0 -52 -41 -80 -99 -80c-54 0 -98 28 -98 80z" />
    <glyph glyph-name="gcommaaccent.alt" horiz-adv-x="615" 
d="M565 529v-490c0 -187 -92 -239 -285 -239h-153v131h142c97 0 133 16 133 104v31c-37 -47 -93 -71 -155 -71c-133 0 -218 86 -218 260c0 172 80 286 228 286c71 0 125 -36 157 -71l12 59h139zM395 173v186c-15 17 -53 42 -95 42c-58 0 -92 -44 -92 -136
c0 -84 29 -133 96 -133c42 0 72 21 91 41zM402 761l-42 -185l-132 33l65 181z" />
    <glyph glyph-name="longs" unicode="&#x17f;" horiz-adv-x="338" 
d="M80 0v406h-69v97l69 17v43c0 107 52 169 167 169c39 0 69 -4 101 -12l-8 -110c-15 4 -31 7 -46 7c-28 0 -44 -15 -44 -48v-569h-170z" />
    <glyph glyph-name="dotlessj" unicode="&#x237;" horiz-adv-x="275" 
d="M222 529v-565c0 -108 -48 -168 -164 -168c-38 0 -71 4 -99 13l9 117c14 -3 28 -5 42 -5c29 0 43 10 43 52v556h169z" />
    <glyph glyph-name="perthousand" unicode="&#x2030;" horiz-adv-x="1271" 
d="M576 172c0 109 76 192 198 192c53 0 101 -21 132 -56c29 31 79 56 146 56c107 0 184 -81 184 -188c0 -109 -74 -189 -184 -189c-70 0 -119 24 -149 53c-34 -32 -79 -53 -140 -53c-115 0 -187 76 -187 185zM35 518c0 109 76 192 198 192c120 0 197 -81 197 -188
c0 -109 -83 -189 -197 -189c-126 0 -198 76 -198 185zM220 0l439 720h137l-441 -720h-135zM164 522c0 -46 25 -76 69 -76s67 31 67 76c0 43 -23 76 -67 76c-45 0 -69 -31 -69 -76zM705 176c0 -46 25 -76 69 -76c42 0 67 28 67 72c0 47 -23 80 -67 80c-45 0 -69 -31 -69 -76z
M1039 252c-42 0 -69 -29 -69 -76c0 -43 21 -76 69 -76c44 0 67 31 67 76c0 43 -23 76 -67 76z" />
    <glyph glyph-name="percent" unicode="%" horiz-adv-x="1005" 
d="M705 176c0 -46 25 -76 69 -76s67 31 67 76c0 43 -23 76 -67 76c-45 0 -69 -31 -69 -76zM576 172c0 109 76 192 198 192c120 0 197 -81 197 -188c0 -109 -83 -189 -197 -189c-126 0 -198 76 -198 185zM164 522c0 -46 25 -76 69 -76s67 31 67 76c0 43 -23 76 -67 76
c-45 0 -69 -31 -69 -76zM35 518c0 109 76 192 198 192c120 0 197 -81 197 -188c0 -109 -83 -189 -197 -189c-126 0 -198 76 -198 185zM220 0l439 720h137l-441 -720h-135z" />
    <glyph glyph-name="fraction" unicode="&#x2044;" horiz-adv-x="135" 
d="M-222 0l443 720h128l-441 -720h-130z" />
    <glyph glyph-name="zerosuperior" unicode="&#x2070;" horiz-adv-x="402" 
d="M20 589c0 119 68 196 183 196c112 0 179 -76 179 -193c0 -122 -69 -199 -185 -199c-109 0 -177 67 -177 196zM246 588c0 68 -15 90 -44 90c-32 0 -47 -24 -47 -89c0 -59 10 -88 45 -88c37 0 46 44 46 87z" />
    <glyph glyph-name="onesuperior" unicode="&#xb9;" horiz-adv-x="304" 
d="M255 400h-135v223c-33 -1 -56 3 -86 11l-9 79c47 10 94 32 124 65h106v-378z" />
    <glyph glyph-name="twosuperior" unicode="&#xb2;" horiz-adv-x="358" 
d="M36 400v78l111 105c31 30 42 40 42 63c0 20 -11 31 -36 31c-30 0 -60 -14 -96 -37l-49 73c44 39 109 72 184 72c78 0 137 -40 137 -113c0 -46 -15 -75 -60 -115l-69 -62h138v-95h-302z" />
    <glyph glyph-name="threesuperior" unicode="&#xb3;" horiz-adv-x="356" 
d="M4 444l40 75c33 -21 68 -33 106 -33c32 0 51 8 51 30c0 24 -19 30 -58 30c-13 0 -34 -2 -43 -3v89c50 1 84 9 84 37c0 21 -16 25 -41 25c-28 0 -66 -13 -93 -26l-31 74c39 23 98 43 163 43c90 0 137 -35 137 -96c0 -43 -27 -74 -78 -88v-2c64 -6 95 -40 95 -90
c0 -79 -70 -116 -167 -116c-64 0 -124 17 -165 51z" />
    <glyph glyph-name="foursuperior" unicode="&#x2074;" horiz-adv-x="394" 
d="M214 690l-88 -135h88v135zM214 400v56h-193v98l151 224h165v-223h36v-99h-36v-56h-123z" />
    <glyph glyph-name="fivesuperior" unicode="&#x2075;" horiz-adv-x="354" 
d="M39 539l18 239h251l-7 -101h-148l-5 -52c15 8 39 17 75 17c80 0 114 -42 114 -113c0 -89 -69 -136 -163 -136c-67 0 -125 23 -160 54l40 70c29 -17 73 -30 105 -30s52 10 52 39c0 24 -12 37 -36 37c-15 0 -28 -5 -36 -9l-2 -15h-98z" />
    <glyph glyph-name="sixsuperior" unicode="&#x2076;" horiz-adv-x="376" 
d="M30 571c0 114 56 214 189 214c44 0 88 -10 121 -26l-23 -77c-28 13 -53 18 -78 18c-58 0 -78 -39 -82 -91c24 18 51 29 88 29c76 0 114 -49 114 -110c0 -97 -79 -135 -161 -135c-124 0 -168 69 -168 178zM203 555c-15 0 -32 -6 -44 -14c0 -32 9 -62 40 -62
c28 0 38 15 38 37c0 25 -12 39 -34 39z" />
    <glyph glyph-name="sevensuperior" unicode="&#x2077;" horiz-adv-x="339" 
d="M325 705l-130 -305h-136v11l119 261h-162v106h309v-73z" />
    <glyph glyph-name="eightsuperior" unicode="&#x2078;" horiz-adv-x="371" 
d="M128 507c0 -23 22 -36 53 -36c29 0 46 12 46 36c0 27 -33 38 -66 48c-17 -12 -33 -26 -33 -48zM155 687c0 -21 24 -33 52 -43c14 12 24 22 24 39c0 19 -14 30 -39 30s-37 -11 -37 -26zM20 499c0 56 36 82 71 98c-29 14 -57 40 -57 81c0 64 60 107 152 107
c101 0 153 -37 153 -94c0 -43 -27 -68 -56 -84c45 -22 70 -48 70 -98c0 -76 -71 -116 -170 -116s-163 38 -163 106z" />
    <glyph glyph-name="ninesuperior" unicode="&#x2079;" horiz-adv-x="379" 
d="M352 607c0 -114 -56 -214 -189 -214c-44 0 -88 10 -121 26l24 81c28 -13 53 -18 78 -18c58 0 80 31 84 86c-27 -20 -54 -28 -91 -28c-76 0 -114 49 -114 110c0 97 79 135 161 135c124 0 168 -69 168 -178zM182 623c15 0 32 6 44 14c0 38 -11 64 -42 64
c-28 0 -39 -17 -39 -39c0 -25 15 -39 37 -39z" />
    <glyph glyph-name="zeroinferior" unicode="&#x2080;" horiz-adv-x="402" 
d="M20 93c0 119 68 196 183 196c112 0 179 -76 179 -193c0 -122 -69 -199 -185 -199c-109 0 -177 67 -177 196zM246 92c0 68 -15 90 -44 90c-32 0 -47 -24 -47 -89c0 -59 10 -88 45 -88c37 0 46 44 46 87z" />
    <glyph glyph-name="oneinferior" unicode="&#x2081;" horiz-adv-x="296" 
d="M247 -96h-135v223c-33 -1 -56 3 -86 11l-9 79c47 10 94 32 124 65h106v-378z" />
    <glyph glyph-name="twoinferior" unicode="&#x2082;" horiz-adv-x="358" 
d="M36 -96v78l111 105c31 30 42 40 42 63c0 20 -11 31 -36 31c-30 0 -60 -14 -96 -37l-49 73c44 39 109 72 184 72c78 0 137 -40 137 -113c0 -46 -15 -75 -60 -115l-69 -62h138v-95h-302z" />
    <glyph glyph-name="threeinferior" unicode="&#x2083;" horiz-adv-x="356" 
d="M4 -52l40 75c33 -21 68 -33 106 -33c32 0 51 8 51 30c0 24 -19 30 -58 30c-13 0 -34 -2 -43 -3v89c50 1 84 9 84 37c0 21 -16 25 -41 25c-28 0 -66 -13 -93 -26l-31 74c39 23 98 43 163 43c90 0 137 -35 137 -96c0 -43 -27 -74 -78 -88v-2c64 -6 95 -40 95 -90
c0 -79 -70 -116 -167 -116c-64 0 -124 17 -165 51z" />
    <glyph glyph-name="fourinferior" unicode="&#x2084;" horiz-adv-x="394" 
d="M214 194l-88 -135h88v135zM214 -96v56h-193v98l151 224h165v-223h36v-99h-36v-56h-123z" />
    <glyph glyph-name="fiveinferior" unicode="&#x2085;" horiz-adv-x="354" 
d="M43 43l18 239h251l-7 -101h-148l-5 -52c15 8 39 17 75 17c80 0 114 -42 114 -113c0 -89 -69 -136 -163 -136c-67 0 -125 23 -160 54l40 70c29 -17 73 -30 105 -30s52 10 52 39c0 24 -12 37 -36 37c-15 0 -28 -5 -36 -9l-2 -15h-98z" />
    <glyph glyph-name="sixinferior" unicode="&#x2086;" horiz-adv-x="376" 
d="M30 75c0 114 56 214 189 214c44 0 88 -10 121 -26l-23 -77c-28 13 -53 18 -78 18c-58 0 -78 -39 -82 -91c24 18 51 29 88 29c76 0 114 -49 114 -110c0 -97 -79 -135 -161 -135c-124 0 -168 69 -168 178zM203 59c-15 0 -32 -6 -44 -14c0 -32 9 -62 40 -62
c28 0 38 15 38 37c0 25 -12 39 -34 39z" />
    <glyph glyph-name="seveninferior" unicode="&#x2087;" horiz-adv-x="339" 
d="M325 209l-130 -305h-136v11l119 261h-162v106h309v-73z" />
    <glyph glyph-name="eightinferior" unicode="&#x2088;" horiz-adv-x="371" 
d="M128 11c0 -23 22 -36 53 -36c29 0 46 12 46 36c0 27 -33 38 -66 48c-17 -12 -33 -26 -33 -48zM155 191c0 -21 24 -33 52 -43c14 12 24 22 24 39c0 19 -14 30 -39 30s-37 -11 -37 -26zM20 3c0 56 36 82 71 98c-29 14 -57 40 -57 81c0 64 60 107 152 107
c101 0 153 -37 153 -94c0 -43 -27 -68 -56 -84c45 -22 70 -48 70 -98c0 -76 -71 -116 -170 -116s-163 38 -163 106z" />
    <glyph glyph-name="nineinferior" unicode="&#x2089;" horiz-adv-x="379" 
d="M352 111c0 -114 -56 -214 -189 -214c-44 0 -88 10 -121 26l24 81c28 -13 53 -18 78 -18c58 0 80 31 84 86c-27 -20 -54 -28 -91 -28c-76 0 -114 49 -114 110c0 97 79 135 161 135c124 0 168 -69 168 -178zM182 127c15 0 32 6 44 14c0 38 -11 64 -42 64
c-28 0 -39 -17 -39 -39c0 -25 15 -39 37 -39z" />
    <glyph glyph-name="zero.num" horiz-adv-x="402" 
d="M20 539c0 119 68 196 183 196c112 0 179 -76 179 -193c0 -122 -69 -199 -185 -199c-109 0 -177 67 -177 196zM246 538c0 68 -15 90 -44 90c-32 0 -47 -24 -47 -89c0 -59 10 -88 45 -88c37 0 46 44 46 87z" />
    <glyph glyph-name="one.num" horiz-adv-x="296" 
d="M247 350h-135v223c-33 -1 -56 3 -86 11l-9 79c47 10 94 32 124 65h106v-378z" />
    <glyph glyph-name="two.num" horiz-adv-x="358" 
d="M36 350v78l111 105c31 30 42 40 42 63c0 20 -11 31 -36 31c-30 0 -60 -14 -96 -37l-49 73c44 39 109 72 184 72c78 0 137 -40 137 -113c0 -46 -15 -75 -60 -115l-69 -62h138v-95h-302z" />
    <glyph glyph-name="three.num" horiz-adv-x="356" 
d="M4 394l40 75c33 -21 68 -33 106 -33c32 0 51 8 51 30c0 24 -19 30 -58 30c-13 0 -34 -2 -43 -3v89c50 1 84 9 84 37c0 21 -16 25 -41 25c-28 0 -66 -13 -93 -26l-31 74c39 23 98 43 163 43c90 0 137 -35 137 -96c0 -43 -27 -74 -78 -88v-2c64 -6 95 -40 95 -90
c0 -79 -70 -116 -167 -116c-64 0 -124 17 -165 51z" />
    <glyph glyph-name="four.num" horiz-adv-x="394" 
d="M214 640l-88 -135h88v135zM214 350v56h-193v98l151 224h165v-223h36v-99h-36v-56h-123z" />
    <glyph glyph-name="five.num" horiz-adv-x="354" 
d="M43 489l18 239h251l-7 -101h-148l-5 -52c15 8 39 17 75 17c80 0 114 -42 114 -113c0 -89 -69 -136 -163 -136c-67 0 -125 23 -160 54l40 70c29 -17 73 -30 105 -30s52 10 52 39c0 24 -12 37 -36 37c-15 0 -28 -5 -36 -9l-2 -15h-98z" />
    <glyph glyph-name="six.num" horiz-adv-x="376" 
d="M30 521c0 114 56 214 189 214c44 0 88 -10 121 -26l-23 -77c-28 13 -53 18 -78 18c-58 0 -78 -39 -82 -91c24 18 51 29 88 29c76 0 114 -49 114 -110c0 -97 -79 -135 -161 -135c-124 0 -168 69 -168 178zM203 505c-15 0 -32 -6 -44 -14c0 -32 9 -62 40 -62
c28 0 38 15 38 37c0 25 -12 39 -34 39z" />
    <glyph glyph-name="seven.num" horiz-adv-x="339" 
d="M325 655l-130 -305h-136v11l119 261h-162v106h309v-73z" />
    <glyph glyph-name="eight.num" horiz-adv-x="371" 
d="M128 457c0 -23 22 -36 53 -36c29 0 46 12 46 36c0 27 -33 38 -66 48c-17 -12 -33 -26 -33 -48zM155 637c0 -21 24 -33 52 -43c14 12 24 22 24 39c0 19 -14 30 -39 30s-37 -11 -37 -26zM20 449c0 56 36 82 71 98c-29 14 -57 40 -57 81c0 64 60 107 152 107
c101 0 153 -37 153 -94c0 -43 -27 -68 -56 -84c45 -22 70 -48 70 -98c0 -76 -71 -116 -170 -116s-163 38 -163 106z" />
    <glyph glyph-name="nine.num" horiz-adv-x="379" 
d="M352 557c0 -114 -56 -214 -189 -214c-44 0 -88 10 -121 26l24 81c28 -13 53 -18 78 -18c58 0 80 31 84 86c-27 -20 -54 -28 -91 -28c-76 0 -114 49 -114 110c0 97 79 135 161 135c124 0 168 -69 168 -178zM182 573c15 0 32 6 44 14c0 38 -11 64 -42 64
c-28 0 -39 -17 -39 -39c0 -25 15 -39 37 -39z" />
    <glyph glyph-name="zero.denom" horiz-adv-x="402" 
d="M20 189c0 119 68 196 183 196c112 0 179 -76 179 -193c0 -122 -69 -199 -185 -199c-109 0 -177 67 -177 196zM246 188c0 68 -15 90 -44 90c-32 0 -47 -24 -47 -89c0 -59 10 -88 45 -88c37 0 46 44 46 87z" />
    <glyph glyph-name="one.denom" horiz-adv-x="296" 
d="M247 0h-135v223c-33 -1 -56 3 -86 11l-9 79c47 10 94 32 124 65h106v-378z" />
    <glyph glyph-name="two.denom" horiz-adv-x="358" 
d="M36 0v78l111 105c31 30 42 40 42 63c0 20 -11 31 -36 31c-30 0 -60 -14 -96 -37l-49 73c44 39 109 72 184 72c78 0 137 -40 137 -113c0 -46 -15 -75 -60 -115l-69 -62h138v-95h-302z" />
    <glyph glyph-name="three.denom" horiz-adv-x="356" 
d="M4 44l40 75c33 -21 68 -33 106 -33c32 0 51 8 51 30c0 24 -19 30 -58 30c-13 0 -34 -2 -43 -3v89c50 1 84 9 84 37c0 21 -16 25 -41 25c-28 0 -66 -13 -93 -26l-31 74c39 23 98 43 163 43c90 0 137 -35 137 -96c0 -43 -27 -74 -78 -88v-2c64 -6 95 -40 95 -90
c0 -79 -70 -116 -167 -116c-64 0 -124 17 -165 51z" />
    <glyph glyph-name="four.denom" horiz-adv-x="394" 
d="M214 290l-88 -135h88v135zM214 0v56h-193v98l151 224h165v-223h36v-99h-36v-56h-123z" />
    <glyph glyph-name="five.denom" horiz-adv-x="354" 
d="M43 139l18 239h251l-7 -101h-148l-5 -52c15 8 39 17 75 17c80 0 114 -42 114 -113c0 -89 -69 -136 -163 -136c-67 0 -125 23 -160 54l40 70c29 -17 73 -30 105 -30s52 10 52 39c0 24 -12 37 -36 37c-15 0 -28 -5 -36 -9l-2 -15h-98z" />
    <glyph glyph-name="six.denom" horiz-adv-x="376" 
d="M30 171c0 114 56 214 189 214c44 0 88 -10 121 -26l-23 -77c-28 13 -53 18 -78 18c-58 0 -78 -39 -82 -91c24 18 51 29 88 29c76 0 114 -49 114 -110c0 -97 -79 -135 -161 -135c-124 0 -168 69 -168 178zM203 155c-15 0 -32 -6 -44 -14c0 -32 9 -62 40 -62
c28 0 38 15 38 37c0 25 -12 39 -34 39z" />
    <glyph glyph-name="seven.denom" horiz-adv-x="339" 
d="M325 305l-130 -305h-136v11l119 261h-162v106h309v-73z" />
    <glyph glyph-name="eight.denom" horiz-adv-x="371" 
d="M128 107c0 -23 22 -36 53 -36c29 0 46 12 46 36c0 27 -33 38 -66 48c-17 -12 -33 -26 -33 -48zM155 287c0 -21 24 -33 52 -43c14 12 24 22 24 39c0 19 -14 30 -39 30s-37 -11 -37 -26zM20 99c0 56 36 82 71 98c-29 14 -57 40 -57 81c0 64 60 107 152 107
c101 0 153 -37 153 -94c0 -43 -27 -68 -56 -84c45 -22 70 -48 70 -98c0 -76 -71 -116 -170 -116s-163 38 -163 106z" />
    <glyph glyph-name="nine.denom" horiz-adv-x="379" 
d="M352 207c0 -114 -56 -214 -189 -214c-44 0 -88 10 -121 26l24 81c28 -13 53 -18 78 -18c58 0 80 31 84 86c-27 -20 -54 -28 -91 -28c-76 0 -114 49 -114 110c0 97 79 135 161 135c124 0 168 -69 168 -178zM182 223c15 0 32 6 44 14c0 38 -11 64 -42 64
c-28 0 -39 -17 -39 -39c0 -25 15 -39 37 -39z" />
    <glyph glyph-name="onehalf" unicode="&#xbd;" horiz-adv-x="917" 
d="M273 350h-135v223c-33 -1 -56 3 -86 11l-9 79c47 10 94 32 124 65h106v-378zM123 0l443 720h128l-441 -720h-130zM540 0v78l111 105c31 30 42 40 42 63c0 20 -11 31 -36 31c-30 0 -60 -14 -96 -37l-49 73c44 39 109 72 184 72c78 0 137 -40 137 -113
c0 -46 -15 -75 -60 -115l-69 -62h138v-95h-302z" />
    <glyph glyph-name="onequarter" unicode="&#xbc;" horiz-adv-x="917" 
d="M278 350h-135v223c-33 -1 -56 3 -86 11l-9 79c47 10 94 32 124 65h106v-378zM152 0l443 720h128l-441 -720h-130zM692 290l-88 -135h88v135zM692 0v56h-193v98l151 224h165v-223h36v-99h-36v-56h-123z" />
    <glyph glyph-name="threequarters" unicode="&#xbe;" horiz-adv-x="917" 
d="M61 394l40 75c33 -21 68 -33 106 -33c32 0 51 8 51 30c0 24 -19 30 -58 30c-13 0 -34 -2 -43 -3v89c50 1 84 9 84 37c0 21 -16 25 -41 25c-28 0 -66 -13 -93 -26l-31 74c39 23 98 43 163 43c90 0 137 -35 137 -96c0 -43 -27 -74 -78 -88v-2c64 -6 95 -40 95 -90
c0 -79 -70 -116 -167 -116c-64 0 -124 17 -165 51zM196 0l443 720h128l-441 -720h-130zM706 290l-88 -135h88v135zM706 0v56h-193v98l151 224h165v-223h36v-99h-36v-56h-123z" />
    <glyph glyph-name="onethird" unicode="&#x2153;" horiz-adv-x="917" 
d="M269 350h-135v223c-33 -1 -56 3 -86 11l-9 79c47 10 94 32 124 65h106v-378zM126 0l443 720h128l-441 -720h-130zM523 44l40 75c33 -21 68 -33 106 -33c32 0 51 8 51 30c0 24 -19 30 -58 30c-13 0 -34 -2 -43 -3v89c50 1 84 9 84 37c0 21 -16 25 -41 25
c-28 0 -66 -13 -93 -26l-31 74c39 23 98 43 163 43c90 0 137 -35 137 -96c0 -43 -27 -74 -78 -88v-2c64 -6 95 -40 95 -90c0 -79 -70 -116 -167 -116c-64 0 -124 17 -165 51z" />
    <glyph glyph-name="twothirds" unicode="&#x2154;" horiz-adv-x="917" 
d="M55 350v78l111 105c31 30 42 40 42 63c0 20 -11 31 -36 31c-30 0 -60 -14 -96 -37l-49 73c44 39 109 72 184 72c78 0 137 -40 137 -113c0 -46 -15 -75 -60 -115l-69 -62h138v-95h-302zM190 0l443 720h128l-441 -720h-130zM572 44l40 75c33 -21 68 -33 106 -33
c32 0 51 8 51 30c0 24 -19 30 -58 30c-13 0 -34 -2 -43 -3v89c50 1 84 9 84 37c0 21 -16 25 -41 25c-28 0 -66 -13 -93 -26l-31 74c39 23 98 43 163 43c90 0 137 -35 137 -96c0 -43 -27 -74 -78 -88v-2c64 -6 95 -40 95 -90c0 -79 -70 -116 -167 -116c-64 0 -124 17 -165 51
z" />
    <glyph glyph-name="onefifth" unicode="&#xf500;" horiz-adv-x="917" 
d="M284 350h-135v223c-33 -1 -56 3 -86 11l-9 79c47 10 94 32 124 65h106v-378zM136 0l443 720h128l-441 -720h-130zM545 139l18 239h251l-7 -101h-148l-5 -52c15 8 39 17 75 17c80 0 114 -42 114 -113c0 -89 -69 -136 -163 -136c-67 0 -125 23 -160 54l40 70
c29 -17 73 -30 105 -30s52 10 52 39c0 24 -12 37 -36 37c-15 0 -28 -5 -36 -9l-2 -15h-98z" />
    <glyph glyph-name="twofifths" unicode="&#xf501;" horiz-adv-x="917" 
d="M60 350v78l111 105c31 30 42 40 42 63c0 20 -11 31 -36 31c-30 0 -60 -14 -96 -37l-49 73c44 39 109 72 184 72c78 0 137 -40 137 -113c0 -46 -15 -75 -60 -115l-69 -62h138v-95h-302zM190 0l443 720h128l-441 -720h-130zM586 139l18 239h251l-7 -101h-148l-5 -52
c15 8 39 17 75 17c80 0 114 -42 114 -113c0 -89 -69 -136 -163 -136c-67 0 -125 23 -160 54l40 70c29 -17 73 -30 105 -30s52 10 52 39c0 24 -12 37 -36 37c-15 0 -28 -5 -36 -9l-2 -15h-98z" />
    <glyph glyph-name="threefifths" unicode="&#xf502;" horiz-adv-x="917" 
d="M60 394l40 75c33 -21 68 -33 106 -33c32 0 51 8 51 30c0 24 -19 30 -58 30c-13 0 -34 -2 -43 -3v89c50 1 84 9 84 37c0 21 -16 25 -41 25c-28 0 -66 -13 -93 -26l-31 74c39 23 98 43 163 43c90 0 137 -35 137 -96c0 -43 -27 -74 -78 -88v-2c64 -6 95 -40 95 -90
c0 -79 -70 -116 -167 -116c-64 0 -124 17 -165 51zM175 0l443 720h128l-441 -720h-130zM577 139l18 239h251l-7 -101h-148l-5 -52c15 8 39 17 75 17c80 0 114 -42 114 -113c0 -89 -69 -136 -163 -136c-67 0 -125 23 -160 54l40 70c29 -17 73 -30 105 -30s52 10 52 39
c0 24 -12 37 -36 37c-15 0 -28 -5 -36 -9l-2 -15h-98z" />
    <glyph glyph-name="fourfifths" unicode="&#xf503;" horiz-adv-x="917" 
d="M222 640l-88 -135h88v135zM222 350v56h-193v98l151 224h165v-223h36v-99h-36v-56h-123zM184 0l443 720h128l-441 -720h-130zM581 139l18 239h251l-7 -101h-148l-5 -52c15 8 39 17 75 17c80 0 114 -42 114 -113c0 -89 -69 -136 -163 -136c-67 0 -125 23 -160 54l40 70
c29 -17 73 -30 105 -30s52 10 52 39c0 24 -12 37 -36 37c-15 0 -28 -5 -36 -9l-2 -15h-98z" />
    <glyph glyph-name="onesixth" unicode="&#xf504;" horiz-adv-x="917" 
d="M282 350h-135v223c-33 -1 -56 3 -86 11l-9 79c47 10 94 32 124 65h106v-378zM143 0l443 720h128l-441 -720h-130zM509 171c0 114 56 214 189 214c44 0 88 -10 121 -26l-23 -77c-28 13 -53 18 -78 18c-58 0 -78 -39 -82 -91c24 18 51 29 88 29c76 0 114 -49 114 -110
c0 -97 -79 -135 -161 -135c-124 0 -168 69 -168 178zM682 155c-15 0 -32 -6 -44 -14c0 -32 9 -62 40 -62c28 0 38 15 38 37c0 25 -12 39 -34 39z" />
    <glyph glyph-name="fivesixths" unicode="&#xf505;" horiz-adv-x="917" 
d="M77 489l18 239h251l-7 -101h-148l-5 -52c15 8 39 17 75 17c80 0 114 -42 114 -113c0 -89 -69 -136 -163 -136c-67 0 -125 23 -160 54l40 70c29 -17 73 -30 105 -30s52 10 52 39c0 24 -12 37 -36 37c-15 0 -28 -5 -36 -9l-2 -15h-98zM168 0l443 720h128l-441 -720h-130z
M525 171c0 114 56 214 189 214c44 0 88 -10 121 -26l-23 -77c-28 13 -53 18 -78 18c-58 0 -78 -39 -82 -91c24 18 51 29 88 29c76 0 114 -49 114 -110c0 -97 -79 -135 -161 -135c-124 0 -168 69 -168 178zM698 155c-15 0 -32 -6 -44 -14c0 -32 9 -62 40 -62
c28 0 38 15 38 37c0 25 -12 39 -34 39z" />
    <glyph glyph-name="oneeighth" unicode="&#x215b;" horiz-adv-x="917" 
d="M277 350h-135v223c-33 -1 -56 3 -86 11l-9 79c47 10 94 32 124 65h106v-378zM139 0l443 720h128l-441 -720h-130zM625 107c0 -23 22 -36 53 -36c29 0 46 12 46 36c0 27 -33 38 -66 48c-17 -12 -33 -26 -33 -48zM652 287c0 -21 24 -33 52 -43c14 12 24 22 24 39
c0 19 -14 30 -39 30s-37 -11 -37 -26zM517 99c0 56 36 82 71 98c-29 14 -57 40 -57 81c0 64 60 107 152 107c101 0 153 -37 153 -94c0 -43 -27 -68 -56 -84c45 -22 70 -48 70 -98c0 -76 -71 -116 -170 -116s-163 38 -163 106z" />
    <glyph glyph-name="threeeighths" unicode="&#x215c;" horiz-adv-x="917" 
d="M42 394l40 75c33 -21 68 -33 106 -33c32 0 51 8 51 30c0 24 -19 30 -58 30c-13 0 -34 -2 -43 -3v89c50 1 84 9 84 37c0 21 -16 25 -41 25c-28 0 -66 -13 -93 -26l-31 74c39 23 98 43 163 43c90 0 137 -35 137 -96c0 -43 -27 -74 -78 -88v-2c64 -6 95 -40 95 -90
c0 -79 -70 -116 -167 -116c-64 0 -124 17 -165 51zM164 0l443 720h128l-441 -720h-130zM638 107c0 -23 22 -36 53 -36c29 0 46 12 46 36c0 27 -33 38 -66 48c-17 -12 -33 -26 -33 -48zM665 287c0 -21 24 -33 52 -43c14 12 24 22 24 39c0 19 -14 30 -39 30s-37 -11 -37 -26z
M530 99c0 56 36 82 71 98c-29 14 -57 40 -57 81c0 64 60 107 152 107c101 0 153 -37 153 -94c0 -43 -27 -68 -56 -84c45 -22 70 -48 70 -98c0 -76 -71 -116 -170 -116s-163 38 -163 106z" />
    <glyph glyph-name="fiveeighths" unicode="&#x215d;" horiz-adv-x="917" 
d="M72 489l18 239h251l-7 -101h-148l-5 -52c15 8 39 17 75 17c80 0 114 -42 114 -113c0 -89 -69 -136 -163 -136c-67 0 -125 23 -160 54l40 70c29 -17 73 -30 105 -30s52 10 52 39c0 24 -12 37 -36 37c-15 0 -28 -5 -36 -9l-2 -15h-98zM165 0l443 720h128l-441 -720h-130z
M648 107c0 -23 22 -36 53 -36c29 0 46 12 46 36c0 27 -33 38 -66 48c-17 -12 -33 -26 -33 -48zM675 287c0 -21 24 -33 52 -43c14 12 24 22 24 39c0 19 -14 30 -39 30s-37 -11 -37 -26zM540 99c0 56 36 82 71 98c-29 14 -57 40 -57 81c0 64 60 107 152 107
c101 0 153 -37 153 -94c0 -43 -27 -68 -56 -84c45 -22 70 -48 70 -98c0 -76 -71 -116 -170 -116s-163 38 -163 106z" />
    <glyph glyph-name="seveneighths" unicode="&#x215e;" horiz-adv-x="917" 
d="M365 655l-130 -305h-136v11l119 261h-162v106h309v-73zM132 0l443 720h128l-441 -720h-130zM632 107c0 -23 22 -36 53 -36c29 0 46 12 46 36c0 27 -33 38 -66 48c-17 -12 -33 -26 -33 -48zM659 287c0 -21 24 -33 52 -43c14 12 24 22 24 39c0 19 -14 30 -39 30
s-37 -11 -37 -26zM524 99c0 56 36 82 71 98c-29 14 -57 40 -57 81c0 64 60 107 152 107c101 0 153 -37 153 -94c0 -43 -27 -68 -56 -84c45 -22 70 -48 70 -98c0 -76 -71 -116 -170 -116s-163 38 -163 106z" />
    <glyph glyph-name="oneseventh" unicode="&#xf506;" horiz-adv-x="917" 
d="M260 350h-135v223c-33 -1 -56 3 -86 11l-9 79c47 10 94 32 124 65h106v-378zM122 0l443 720h128l-441 -720h-130zM863 305l-130 -305h-136v11l119 261h-162v106h309v-73z" />
    <glyph glyph-name="twosevenths" unicode="&#xf507;" horiz-adv-x="917" 
d="M53 350v78l111 105c31 30 42 40 42 63c0 20 -11 31 -36 31c-30 0 -60 -14 -96 -37l-49 73c44 39 109 72 184 72c78 0 137 -40 137 -113c0 -46 -15 -75 -60 -115l-69 -62h138v-95h-302zM183 0l443 720h128l-441 -720h-130zM891 305l-130 -305h-136v11l119 261h-162v106
h309v-73z" />
    <glyph glyph-name="threesevenths" unicode="&#xf508;" horiz-adv-x="917" 
d="M34 394l40 75c33 -21 68 -33 106 -33c32 0 51 8 51 30c0 24 -19 30 -58 30c-13 0 -34 -2 -43 -3v89c50 1 84 9 84 37c0 21 -16 25 -41 25c-28 0 -66 -13 -93 -26l-31 74c39 23 98 43 163 43c90 0 137 -35 137 -96c0 -43 -27 -74 -78 -88v-2c64 -6 95 -40 95 -90
c0 -79 -70 -116 -167 -116c-64 0 -124 17 -165 51zM148 0l443 720h128l-441 -720h-130zM871 305l-130 -305h-136v11l119 261h-162v106h309v-73z" />
    <glyph glyph-name="foursevenths" unicode="&#xf509;" horiz-adv-x="917" 
d="M211 640l-88 -135h88v135zM211 350v56h-193v98l151 224h165v-223h36v-99h-36v-56h-123zM167 0l443 720h128l-441 -720h-130zM887 305l-130 -305h-136v11l119 261h-162v106h309v-73z" />
    <glyph glyph-name="fivesevenths" unicode="&#xf50a;" horiz-adv-x="917" 
d="M64 489l18 239h251l-7 -101h-148l-5 -52c15 8 39 17 75 17c80 0 114 -42 114 -113c0 -89 -69 -136 -163 -136c-67 0 -125 23 -160 54l40 70c29 -17 73 -30 105 -30s52 10 52 39c0 24 -12 37 -36 37c-15 0 -28 -5 -36 -9l-2 -15h-98zM146 0l443 720h128l-441 -720h-130z
M868 305l-130 -305h-136v11l119 261h-162v106h309v-73z" />
    <glyph glyph-name="sixsevenths" unicode="&#xf50b;" horiz-adv-x="917" 
d="M34 521c0 114 56 214 189 214c44 0 88 -10 121 -26l-23 -77c-28 13 -53 18 -78 18c-58 0 -78 -39 -82 -91c24 18 51 29 88 29c76 0 114 -49 114 -110c0 -97 -79 -135 -161 -135c-124 0 -168 69 -168 178zM207 505c-15 0 -32 -6 -44 -14c0 -32 9 -62 40 -62
c28 0 38 15 38 37c0 25 -12 39 -34 39zM154 0l443 720h128l-441 -720h-130zM885 305l-130 -305h-136v11l119 261h-162v106h309v-73z" />
    <glyph glyph-name="oneninth" unicode="&#xf50c;" horiz-adv-x="917" 
d="M273 350h-135v223c-33 -1 -56 3 -86 11l-9 79c47 10 94 32 124 65h106v-378zM139 0l443 720h128l-441 -720h-130zM869 207c0 -114 -56 -214 -189 -214c-44 0 -88 10 -121 26l24 81c28 -13 53 -18 78 -18c58 0 80 31 84 86c-27 -20 -54 -28 -91 -28
c-76 0 -114 49 -114 110c0 97 79 135 161 135c124 0 168 -69 168 -178zM699 223c15 0 32 6 44 14c0 38 -11 64 -42 64c-28 0 -39 -17 -39 -39c0 -25 15 -39 37 -39z" />
    <glyph glyph-name="twoninths" unicode="&#xf50d;" horiz-adv-x="917" 
d="M61 350v78l111 105c31 30 42 40 42 63c0 20 -11 31 -36 31c-30 0 -60 -14 -96 -37l-49 73c44 39 109 72 184 72c78 0 137 -40 137 -113c0 -46 -15 -75 -60 -115l-69 -62h138v-95h-302zM195 0l443 720h128l-441 -720h-130zM889 207c0 -114 -56 -214 -189 -214
c-44 0 -88 10 -121 26l24 81c28 -13 53 -18 78 -18c58 0 80 31 84 86c-27 -20 -54 -28 -91 -28c-76 0 -114 49 -114 110c0 97 79 135 161 135c124 0 168 -69 168 -178zM719 223c15 0 32 6 44 14c0 38 -11 64 -42 64c-28 0 -39 -17 -39 -39c0 -25 15 -39 37 -39z" />
    <glyph glyph-name="fourninths" unicode="&#xf50e;" horiz-adv-x="917" 
d="M227 640l-88 -135h88v135zM227 350v56h-193v98l151 224h165v-223h36v-99h-36v-56h-123zM191 0l443 720h128l-441 -720h-130zM888 207c0 -114 -56 -214 -189 -214c-44 0 -88 10 -121 26l24 81c28 -13 53 -18 78 -18c58 0 80 31 84 86c-27 -20 -54 -28 -91 -28
c-76 0 -114 49 -114 110c0 97 79 135 161 135c124 0 168 -69 168 -178zM718 223c15 0 32 6 44 14c0 38 -11 64 -42 64c-28 0 -39 -17 -39 -39c0 -25 15 -39 37 -39z" />
    <glyph glyph-name="fiveninths" unicode="&#xf50f;" horiz-adv-x="917" 
d="M68 489l18 239h251l-7 -101h-148l-5 -52c15 8 39 17 75 17c80 0 114 -42 114 -113c0 -89 -69 -136 -163 -136c-67 0 -125 23 -160 54l40 70c29 -17 73 -30 105 -30s52 10 52 39c0 24 -12 37 -36 37c-15 0 -28 -5 -36 -9l-2 -15h-98zM157 0l443 720h128l-441 -720h-130z
M859 207c0 -114 -56 -214 -189 -214c-44 0 -88 10 -121 26l24 81c28 -13 53 -18 78 -18c58 0 80 31 84 86c-27 -20 -54 -28 -91 -28c-76 0 -114 49 -114 110c0 97 79 135 161 135c124 0 168 -69 168 -178zM689 223c15 0 32 6 44 14c0 38 -11 64 -42 64
c-28 0 -39 -17 -39 -39c0 -25 15 -39 37 -39z" />
    <glyph glyph-name="sevenninths" unicode="&#xf510;" horiz-adv-x="917" 
d="M341 655l-130 -305h-136v11l119 261h-162v106h309v-73zM117 0l443 720h128l-441 -720h-130zM847 207c0 -114 -56 -214 -189 -214c-44 0 -88 10 -121 26l24 81c28 -13 53 -18 78 -18c58 0 80 31 84 86c-27 -20 -54 -28 -91 -28c-76 0 -114 49 -114 110
c0 97 79 135 161 135c124 0 168 -69 168 -178zM677 223c15 0 32 6 44 14c0 38 -11 64 -42 64c-28 0 -39 -17 -39 -39c0 -25 15 -39 37 -39z" />
    <glyph glyph-name="eightninths" unicode="&#xf511;" horiz-adv-x="917" 
d="M156 457c0 -23 22 -36 53 -36c29 0 46 12 46 36c0 27 -33 38 -66 48c-17 -12 -33 -26 -33 -48zM183 637c0 -21 24 -33 52 -43c14 12 24 22 24 39c0 19 -14 30 -39 30s-37 -11 -37 -26zM48 449c0 56 36 82 71 98c-29 14 -57 40 -57 81c0 64 60 107 152 107
c101 0 153 -37 153 -94c0 -43 -27 -68 -56 -84c45 -22 70 -48 70 -98c0 -76 -71 -116 -170 -116s-163 38 -163 106zM170 0l443 720h128l-441 -720h-130zM865 207c0 -114 -56 -214 -189 -214c-44 0 -88 10 -121 26l24 81c28 -13 53 -18 78 -18c58 0 80 31 84 86
c-27 -20 -54 -28 -91 -28c-76 0 -114 49 -114 110c0 97 79 135 161 135c124 0 168 -69 168 -178zM695 223c15 0 32 6 44 14c0 38 -11 64 -42 64c-28 0 -39 -17 -39 -39c0 -25 15 -39 37 -39z" />
    <glyph glyph-name="minus" unicode="&#x2212;" 
d="M560 343v-103h-520v103h520z" />
    <glyph glyph-name="uni2215" unicode="&#x2215;" horiz-adv-x="135" 
d="M-222 0l443 720h128l-441 -720h-130z" />
    <glyph glyph-name="uni2219" unicode="&#x2219;" horiz-adv-x="316" 
d="M73 332c0 54 32 88 92 88c57 0 92 -34 92 -84s-35 -86 -92 -86c-61 0 -92 36 -92 82z" />
    <glyph glyph-name="approxequal" unicode="&#x2248;" horiz-adv-x="742" 
d="M647 473l65 -110c-58 -45 -140 -83 -216 -83c-90 0 -180 61 -258 61c-60 0 -95 -21 -152 -56l-63 107c66 50 135 82 210 82c87 0 178 -60 256 -60c56 0 106 25 158 59zM647 262l65 -110c-58 -45 -140 -83 -216 -83c-90 0 -180 61 -258 61c-60 0 -95 -21 -152 -56l-63 107
c66 50 135 82 210 82c87 0 178 -60 256 -60c56 0 106 25 158 59z" />
    <glyph glyph-name="notequal" unicode="&#x2260;" 
d="M560 245v-105h-281l-85 -140h-130l86 140h-111v105h175l52 85h-227v104h291l55 89h128l-54 -89h101v-104h-165l-52 -85h217z" />
    <glyph glyph-name="lessequal" unicode="&#x2264;" 
d="M560 105v-105h-520v105h520zM515 139l-475 208v79l473 208l45 -105l-325 -141l327 -139z" />
    <glyph glyph-name="greaterequal" unicode="&#x2265;" 
d="M40 0v105h520v-105h-520zM560 347l-475 -208l-45 110l327 139l-325 141l45 105l473 -208v-79z" />
    <glyph glyph-name="less" unicode="&#x3c;" 
d="M548 37l-523 221v79l521 222l45 -108l-366 -153l368 -152z" />
    <glyph glyph-name="equal" unicode="=" 
d="M560 245v-105h-521v105h521zM560 434v-104h-521v104h521z" />
    <glyph glyph-name="greater" unicode="&#x3e;" 
d="M577 258l-523 -221l-44 109l366 152l-365 153l45 108l521 -222v-79z" />
    <glyph glyph-name="logicalnot" unicode="&#xac;" 
d="M569 120h-111v182h-426v102h537v-284z" />
    <glyph glyph-name="plus" unicode="+" 
d="M354 553v-210h207v-103h-207v-210h-108v210h-208v103h208v210h108z" />
    <glyph glyph-name="plusminus" unicode="&#xb1;" 
d="M560 103v-103h-520v103h206v140h-206v100h206v159h108v-159h206v-100h-206v-140h206z" />
    <glyph glyph-name="divide" unicode="&#xf7;" 
d="M300 533c35 0 64 -29 64 -66c0 -34 -27 -64 -64 -64s-66 29 -66 64c0 36 30 66 66 66zM40 240v103h520v-103h-520zM299 184c36 0 65 -31 65 -66c0 -34 -27 -65 -66 -65c-35 0 -65 30 -65 65c0 36 31 66 66 66z" />
    <glyph glyph-name="multiply" unicode="&#xd7;" 
d="M524 437l-148 -147l148 -149l-74 -74l-148 149l-148 -149l-78 78l149 149l-149 147l74 74l148 -148l148 148z" />
    <glyph glyph-name="partialdiff" unicode="&#x2202;" horiz-adv-x="614" 
d="M248 -12c-120 0 -210 70 -210 209c0 145 84 260 230 260c59 0 116 -31 137 -81c2 22 4 41 4 58c0 93 -36 141 -115 141c-44 0 -97 -11 -138 -29l-26 104c67 37 135 51 196 51c154 0 233 -100 233 -277c0 -204 -80 -436 -311 -436zM273 119c70 0 104 63 104 121
c0 71 -29 103 -79 103c-72 0 -101 -67 -101 -127c0 -61 28 -97 76 -97z" />
    <glyph glyph-name="Omega" unicode="&#x2126;" horiz-adv-x="809" 
d="M452 0v146c77 44 125 122 125 223c0 122 -57 203 -169 203s-170 -85 -170 -206c0 -100 46 -178 113 -220v-146h-305v152h141v5c-68 37 -136 121 -136 244c0 199 139 332 357 332s356 -120 356 -316c0 -138 -75 -226 -150 -261v-4h144v-152h-306z" />
    <glyph glyph-name="Delta" unicode="&#x2206;" horiz-adv-x="728" 
d="M255 720h216l244 -720h-703zM234 142h249l-120 404z" />
    <glyph glyph-name="product" unicode="&#x220f;" horiz-adv-x="713" 
d="M56 -140v860h601v-860h-177v711h-247v-711h-177z" />
    <glyph glyph-name="summation" unicode="&#x2211;" horiz-adv-x="610" 
d="M564 568h-295l165 -252l-168 -283h320v-152h-587v65l225 370l-225 339v65h565v-152z" />
    <glyph glyph-name="uni0394" unicode="&#x394;" horiz-adv-x="728" 
d="M255 720h216l244 -720h-703zM234 142h249l-120 404z" />
    <glyph glyph-name="uni03A9" unicode="&#x3a9;" horiz-adv-x="809" 
d="M452 0v146c77 44 125 122 125 223c0 122 -57 203 -169 203s-170 -85 -170 -206c0 -100 46 -178 113 -220v-146h-305v152h141v5c-68 37 -136 121 -136 244c0 199 139 332 357 332s356 -120 356 -316c0 -138 -75 -226 -150 -261v-4h144v-152h-306z" />
    <glyph glyph-name="uni03BC" unicode="&#x3bc;" horiz-adv-x="599" 
d="M538 0h-150v55c-18 -30 -56 -60 -103 -60c-25 0 -46 7 -65 22v-217h-169v729h169v-330c0 -58 30 -79 67 -79c27 0 57 11 81 28v381h170v-529z" />
    <glyph glyph-name="pi" unicode="&#x3c0;" horiz-adv-x="719" 
d="M38 402v127h642v-127h-73v-402h-169v402h-150v-402h-169v402h-81z" />
    <glyph glyph-name="mu" unicode="&#xb5;" horiz-adv-x="599" 
d="M538 0h-150v55c-18 -30 -56 -60 -103 -60c-25 0 -46 7 -65 22v-217h-169v729h169v-330c0 -58 30 -79 67 -79c27 0 57 11 81 28v381h170v-529z" />
    <glyph glyph-name="radical" unicode="&#x221a;" horiz-adv-x="771" 
d="M40 220v119h242l111 -315l266 800h149l-336 -990h-157l-146 386h-129z" />
    <glyph glyph-name="infinity" unicode="&#x221e;" horiz-adv-x="796" 
d="M749 314c0 -106 -71 -174 -154 -174c-97 0 -148 51 -195 95c-57 -56 -112 -95 -187 -95c-98 0 -166 59 -166 161c0 99 66 170 174 170c79 0 130 -40 181 -100c59 60 111 101 191 101c106 0 156 -74 156 -158zM636 306c0 42 -19 71 -65 71c-38 0 -67 -26 -107 -71
c28 -30 70 -71 109 -71c43 0 63 34 63 71zM338 304c-38 47 -69 72 -106 72c-49 0 -71 -33 -71 -72c0 -43 24 -71 71 -71c33 0 74 32 106 71z" />
    <glyph glyph-name="integral" unicode="&#x222b;" horiz-adv-x="357" 
d="M-20 -77h67c40 0 64 20 64 80v603c0 118 53 184 174 184h80v-123l-55 1c-44 1 -56 -25 -56 -96v-584c0 -118 -53 -188 -192 -188h-82v123z" />
    <glyph glyph-name="lozenge" unicode="&#x25ca;" horiz-adv-x="634" 
d="M256 0l-195 352l195 348h114l204 -346l-204 -354h-114zM315 560l-114 -210l114 -211l117 211z" />
    <glyph glyph-name="zero.tf" 
d="M202 351c0 -145 25 -222 98 -222c71 0 98 77 98 225c0 142 -23 224 -97 224s-99 -82 -99 -227zM36 351c0 243 94 369 268 369c172 0 260 -126 260 -360c0 -252 -92 -373 -267 -373c-174 0 -261 121 -261 364z" />
    <glyph glyph-name="one.tf" 
d="M248 127v382c-44 -21 -92 -33 -149 -37l-21 111c73 19 155 68 205 127h130v-583h125v-127h-431v127h141z" />
    <glyph glyph-name="two.tf" 
d="M66 0v100l232 273c47 55 66 85 66 127c0 48 -33 77 -82 77c-51 0 -126 -39 -173 -77l-63 105c64 61 162 115 266 115c113 0 217 -65 217 -198c0 -81 -31 -134 -91 -206l-151 -181h254v-135h-475z" />
    <glyph glyph-name="three.tf" 
d="M28 84l65 104c51 -38 105 -62 167 -62c60 0 108 24 108 83c0 55 -35 86 -113 87c-20 0 -54 -2 -68 -5l-3 130c82 2 154 38 154 99c0 47 -33 64 -80 64c-52 0 -100 -19 -141 -42l-61 102c69 48 138 76 233 76c122 0 207 -64 207 -174c0 -75 -50 -141 -132 -170v-3
c103 -10 160 -71 160 -171c0 -145 -112 -215 -251 -215c-87 0 -179 30 -245 97z" />
    <glyph glyph-name="four.tf" 
d="M177 274h163v288zM340 0v142h-305v127l261 441h207v-436h66v-132h-66v-142h-163z" />
    <glyph glyph-name="five.tf" 
d="M80 254l33 456h388l-10 -150h-251l-12 -136c26 21 66 38 116 38c120 0 196 -75 196 -223c0 -163 -116 -252 -257 -252c-79 0 -171 28 -233 83l53 108c62 -33 109 -50 163 -50c61 0 115 27 115 114c0 66 -29 99 -82 99c-35 0 -64 -17 -80 -32l-5 -55h-134z" />
    <glyph glyph-name="six.tf" 
d="M51 319c0 249 99 401 281 401c61 0 118 -13 188 -51l-46 -111c-41 22 -83 32 -124 32c-97 0 -139 -96 -144 -204c39 36 90 67 154 67c111 0 192 -75 192 -212c0 -184 -110 -254 -243 -254c-179 0 -258 121 -258 332zM307 123c52 0 90 38 90 103c0 71 -33 101 -85 101
c-41 0 -84 -27 -103 -45c1 -99 30 -159 98 -159z" />
    <glyph glyph-name="seven.tf" 
d="M533 600l-240 -600h-172v16l226 545h-280v149h466v-110z" />
    <glyph glyph-name="eight.tf" 
d="M193 197c0 -52 36 -82 99 -82c57 0 91 34 91 82c0 60 -57 92 -114 115c-43 -24 -76 -65 -76 -115zM233 534c0 -43 39 -70 88 -90c30 20 58 52 58 91c0 45 -29 67 -76 67s-70 -30 -70 -68zM43 182c0 99 69 161 124 191c-46 22 -97 79 -97 159c0 111 89 188 236 188
c135 0 221 -69 221 -173c0 -79 -51 -133 -99 -162c73 -39 124 -97 124 -185c0 -137 -106 -213 -264 -213s-245 70 -245 195z" />
    <glyph glyph-name="nine.tf" 
d="M551 403c0 -268 -100 -416 -272 -416c-71 0 -141 20 -205 56l46 108c36 -18 92 -36 137 -36c97 0 130 99 137 197c-39 -36 -89 -61 -149 -61c-120 0 -196 89 -196 220c0 168 112 249 243 249c174 0 259 -119 259 -317zM294 585c-52 0 -91 -38 -91 -103
c0 -71 36 -100 88 -100c41 0 80 21 101 46c0 89 -30 157 -98 157z" />
    <glyph glyph-name="dollar.tf" 
d="M238 -88v91c-73 12 -152 60 -201 108l75 94c59 -46 130 -74 185 -74c48 0 79 16 79 56c0 38 -20 61 -132 94c-114 34 -187 89 -187 202c0 110 75 180 182 196v82h127v-84c68 -13 129 -47 171 -86l-74 -97c-43 34 -103 61 -156 61c-51 0 -85 -13 -85 -56
c0 -39 30 -64 139 -95c120 -34 186 -97 186 -200c0 -111 -68 -183 -181 -201v-91h-128z" />
    <glyph glyph-name="Euro.tf" 
d="M-2 382l7 81h63c28 142 130 257 298 257c75 0 158 -29 221 -97l-67 -90c-43 35 -94 58 -149 58c-78 0 -125 -49 -143 -128h264l-7 -81h-267c-1 -11 -1 -21 -1 -32c0 -10 0 -19 1 -27h262l-6 -81h-246c21 -78 67 -116 144 -116c62 0 111 22 158 55l61 -100
c-85 -74 -150 -94 -244 -94c-152 0 -259 108 -281 255h-79l6 81h66c-1 8 -1 17 -1 26c0 11 0 22 1 33h-61z" />
    <glyph glyph-name="cent.tf" 
d="M500 258l49 -105c-43 -33 -96 -58 -156 -69v-102h-130v99c-121 16 -208 107 -208 269c0 147 81 256 209 272v97h129v-98c106 -22 160 -92 162 -217h-141c-4 60 -35 85 -82 85c-60 0 -98 -37 -98 -133c0 -91 41 -143 115 -143c51 0 99 17 151 45z" />
    <glyph glyph-name="sterling.tf" 
d="M355 233c0 -38 -21 -76 -43 -101h239v-132h-473v118l67 10c27 26 49 66 49 105c0 24 -11 61 -18 78h-97v102h61c-19 35 -33 68 -33 112c0 112 93 195 227 195c88 0 166 -34 222 -92l-65 -95c-42 30 -84 55 -138 55c-53 0 -73 -32 -73 -76c0 -28 12 -62 30 -99h139v-102
h-111c8 -20 17 -56 17 -78z" />
    <glyph glyph-name="yen.tf" 
d="M56 294v88h124l-175 328h175l120 -260l126 260h169l-182 -328h130v-88h-168v-65h168v-88h-168v-141h-157v141h-163v88h163v65h-162z" />
    <glyph glyph-name="florin.tf" 
d="M28 -81h39c33 0 51 21 61 68l69 321h-81v110h104l20 102c21 108 54 190 185 190h91v-123h-60c-40 0 -52 -35 -61 -84l-17 -85h88v-110h-110l-63 -297c-28 -134 -58 -211 -192 -211h-73v119z" />
    <glyph glyph-name="zero.osf" horiz-adv-x="640" 
d="M207 301c0 -114 36 -173 113 -173s113 57 113 176c0 118 -38 164 -113 164c-74 0 -113 -56 -113 -167zM39 302c0 196 106 310 285 310c182 0 277 -106 277 -307c0 -196 -96 -318 -282 -318c-191 0 -280 119 -280 315z" />
    <glyph glyph-name="one.osf" horiz-adv-x="501" 
d="M206 127v273c-44 -21 -92 -33 -149 -37l-21 111c73 19 155 68 205 127h130v-474h125v-127h-431v127h141z" />
    <glyph glyph-name="two.osf" horiz-adv-x="552" 
d="M40 0v96l205 194c53 50 83 75 83 122c0 35 -27 57 -66 57c-61 0 -127 -42 -174 -75l-68 103c65 59 155 115 267 115s216 -56 216 -181c0 -74 -26 -113 -99 -184l-116 -112h227v-135h-475z" />
    <glyph glyph-name="three.osf" horiz-adv-x="543" 
d="M5 28l68 103c53 -38 105 -64 169 -64c57 0 101 21 101 74c0 48 -33 69 -112 69c-20 0 -52 -2 -66 -5l-5 134c82 2 154 18 154 82c0 40 -34 55 -81 55c-46 0 -102 -20 -141 -42l-61 102c69 48 142 76 237 76c122 0 205 -54 205 -164c0 -80 -54 -129 -134 -156v-3
c108 -13 163 -70 163 -161c0 -137 -121 -199 -252 -199c-87 0 -182 34 -245 99z" />
    <glyph glyph-name="four.osf" horiz-adv-x="612" 
d="M175 214h181v253zM356 -60v142h-321v127l277 392h207v-387h72v-132h-72v-142h-163z" />
    <glyph glyph-name="five.osf" horiz-adv-x="550" 
d="M51 176l32 425h388l-10 -150h-251l-10 -104c26 19 65 37 116 37c120 0 196 -76 196 -209c0 -163 -115 -246 -256 -246c-79 0 -171 28 -233 83l53 108c62 -33 109 -50 163 -50c61 0 115 33 115 105c0 62 -34 87 -78 87c-37 0 -70 -16 -86 -31l-5 -55h-134z" />
    <glyph glyph-name="six.osf" horiz-adv-x="580" 
d="M45 319c0 249 99 401 281 401c61 0 118 -13 188 -51l-46 -111c-41 22 -83 32 -124 32c-97 0 -139 -96 -144 -204c39 36 90 67 154 67c111 0 192 -75 192 -212c0 -184 -110 -254 -243 -254c-179 0 -258 121 -258 332zM301 123c52 0 90 38 90 103c0 71 -33 101 -85 101
c-41 0 -84 -27 -103 -45c1 -99 30 -159 98 -159z" />
    <glyph glyph-name="seven.osf" horiz-adv-x="503" 
d="M484 491l-228 -551h-175v16l214 496h-277v149h466v-110z" />
    <glyph glyph-name="eight.osf" horiz-adv-x="555" 
d="M173 197c0 -52 36 -82 99 -82c57 0 91 34 91 82c0 60 -57 92 -114 115c-43 -24 -76 -65 -76 -115zM213 534c0 -43 39 -70 88 -90c30 20 58 52 58 91c0 45 -29 67 -76 67s-70 -30 -70 -68zM23 182c0 99 69 161 124 191c-46 22 -97 79 -97 159c0 111 89 188 236 188
c135 0 221 -69 221 -173c0 -79 -51 -133 -99 -162c73 -39 124 -97 124 -185c0 -137 -106 -213 -264 -213s-245 70 -245 195z" />
    <glyph glyph-name="nine.osf" horiz-adv-x="575" 
d="M535 295c0 -268 -100 -367 -272 -367c-71 0 -141 20 -205 56l46 108c36 -18 92 -36 137 -36c97 0 130 60 137 158c-39 -36 -89 -61 -149 -61c-120 0 -196 79 -196 210c0 168 112 249 243 249c174 0 259 -119 259 -317zM278 477c-54 0 -91 -38 -91 -100s36 -93 88 -93
c41 0 78 21 99 46c2 80 -28 147 -96 147z" />
    <glyph glyph-name="dollar.osf" horiz-adv-x="556" 
d="M213 -88v91c-73 12 -152 60 -201 108l75 94c59 -46 130 -74 185 -74c48 0 79 16 79 56c0 38 -20 61 -132 94c-114 34 -187 89 -187 202c0 110 75 180 182 196v82h127v-84c68 -13 129 -47 171 -86l-74 -97c-43 34 -103 61 -156 61c-51 0 -85 -13 -85 -56
c0 -39 30 -64 139 -95c120 -34 186 -97 186 -200c0 -111 -68 -183 -181 -201v-91h-128z" />
    <glyph glyph-name="Euro.osf" horiz-adv-x="625" 
d="M5 381l6 82h63c22 140 134 257 296 257c82 0 168 -31 234 -102l-67 -90c-43 37 -104 63 -159 63c-78 0 -124 -46 -144 -128h264l-6 -82h-267c-1 -11 -1 -20 -1 -31c0 -10 0 -19 1 -27h262l-7 -81h-246c20 -79 73 -116 145 -116c62 0 121 25 169 63l60 -98
c-85 -74 -160 -104 -254 -104c-152 0 -263 107 -282 255h-79l7 81h66c-1 8 -1 23 -1 37v21h-60z" />
    <glyph glyph-name="cent.osf" horiz-adv-x="570" 
d="M489 179l49 -105c-43 -33 -96 -58 -156 -69v-102h-130v99c-121 16 -208 107 -208 269c0 147 81 256 209 272v97h129v-98c106 -22 160 -92 162 -217h-141c-4 60 -35 85 -82 85c-60 0 -98 -37 -98 -133c0 -91 41 -143 115 -143c51 0 99 17 151 45z" />
    <glyph glyph-name="sterling.osf" horiz-adv-x="532" 
d="M314 233c0 -38 -21 -76 -43 -101h239v-132h-473v118l67 10c27 26 49 66 49 105c0 24 -11 61 -18 78h-97v102h61c-19 35 -33 68 -33 112c0 112 93 195 227 195c88 0 166 -34 222 -92l-65 -95c-42 30 -84 55 -138 55c-53 0 -73 -32 -73 -76c0 -28 12 -62 30 -99h139v-102
h-111c8 -20 17 -56 17 -78z" />
    <glyph glyph-name="yen.osf" horiz-adv-x="606" 
d="M59 294v88h124l-175 328h175l120 -260l126 260h169l-182 -328h130v-88h-168v-65h168v-88h-168v-141h-157v141h-163v88h163v65h-162z" />
    <glyph glyph-name="florin.osf" horiz-adv-x="488" 
d="M-13 -81h39c33 0 51 21 61 68l69 321h-81v110h104l20 102c21 108 54 190 185 190h91v-123h-60c-40 0 -52 -35 -61 -84l-17 -85h88v-110h-110l-63 -297c-28 -134 -58 -211 -192 -211h-73v119z" />
    <glyph glyph-name="zero.tosf" unicode="&#xf81e;" 
d="M202 305c0 -116 27 -175 97 -175s99 57 99 176c0 118 -32 164 -98 164s-98 -56 -98 -165zM38 302c0 196 93 310 262 310c179 0 261 -106 261 -307c0 -196 -83 -318 -262 -318s-261 119 -261 315z" />
    <glyph glyph-name="one.tosf" unicode="&#xf81f;" 
d="M255 127v273c-44 -21 -92 -33 -149 -37l-21 111c73 19 155 68 205 127h130v-474h125v-127h-431v127h141z" />
    <glyph glyph-name="two.tosf" unicode="&#xf820;" 
d="M72 0v96l205 194c53 50 83 75 83 122c0 35 -27 57 -66 57c-61 0 -127 -42 -174 -75l-68 103c65 59 155 115 267 115s216 -56 216 -181c0 -74 -26 -113 -99 -184l-116 -112h227v-135h-475z" />
    <glyph glyph-name="three.tosf" unicode="&#xf821;" 
d="M38 28l68 103c53 -38 105 -64 169 -64c57 0 101 21 101 74c0 48 -33 69 -112 69c-20 0 -52 -2 -66 -5l-5 134c82 2 154 18 154 82c0 40 -34 55 -81 55c-46 0 -102 -20 -141 -42l-61 102c69 48 142 76 237 76c122 0 205 -54 205 -164c0 -80 -54 -129 -134 -156v-3
c108 -13 163 -70 163 -161c0 -137 -121 -199 -252 -199c-87 0 -182 34 -245 99z" />
    <glyph glyph-name="four.tosf" unicode="&#xf822;" 
d="M176 214h161v246zM337 -60v142h-301v127l257 392h207v-387h72v-132h-72v-142h-163z" />
    <glyph glyph-name="five.tosf" unicode="&#xf823;" 
d="M83 176l32 425h388l-10 -150h-251l-10 -104c26 19 65 37 116 37c120 0 196 -76 196 -209c0 -163 -115 -246 -256 -246c-79 0 -171 28 -233 83l53 108c62 -33 109 -50 163 -50c61 0 115 33 115 105c0 62 -34 87 -78 87c-37 0 -70 -16 -86 -31l-5 -55h-134z" />
    <glyph glyph-name="six.tosf" unicode="&#xf824;" 
d="M51 319c0 249 99 401 281 401c61 0 118 -13 188 -51l-46 -111c-41 22 -83 32 -124 32c-97 0 -139 -96 -144 -204c39 36 90 67 154 67c111 0 192 -75 192 -212c0 -184 -110 -254 -243 -254c-179 0 -258 121 -258 332zM307 123c52 0 90 38 90 103c0 71 -33 101 -85 101
c-41 0 -84 -27 -103 -45c1 -99 30 -159 98 -159z" />
    <glyph glyph-name="seven.tosf" unicode="&#xf825;" 
d="M534 491l-228 -551h-175v16l214 496h-277v149h466v-110z" />
    <glyph glyph-name="eight.tosf" unicode="&#xf826;" 
d="M200 197c0 -52 36 -82 99 -82c57 0 91 34 91 82c0 60 -57 92 -114 115c-43 -24 -76 -65 -76 -115zM240 534c0 -43 39 -70 88 -90c30 20 58 52 58 91c0 45 -29 67 -76 67s-70 -30 -70 -68zM50 182c0 99 69 161 124 191c-46 22 -97 79 -97 159c0 111 89 188 236 188
c135 0 221 -69 221 -173c0 -79 -51 -133 -99 -162c73 -39 124 -97 124 -185c0 -137 -106 -213 -264 -213s-245 70 -245 195z" />
    <glyph glyph-name="nine.tosf" unicode="&#xf827;" 
d="M549 295c0 -268 -100 -367 -272 -367c-71 0 -141 20 -205 56l46 108c36 -18 92 -36 137 -36c97 0 130 60 137 158c-39 -36 -89 -61 -149 -61c-120 0 -196 79 -196 210c0 168 112 249 243 249c174 0 259 -119 259 -317zM292 477c-54 0 -91 -38 -91 -100s36 -93 88 -93
c41 0 78 21 99 46c2 80 -28 147 -96 147z" />
    <glyph glyph-name="dollar.tosf" 
d="M239 -88v91c-73 12 -152 60 -201 108l75 94c59 -46 130 -74 185 -74c48 0 79 16 79 56c0 38 -20 61 -132 94c-114 34 -187 89 -187 202c0 110 75 180 182 196v82h127v-84c68 -13 129 -47 171 -86l-74 -97c-43 34 -103 61 -156 61c-51 0 -85 -13 -85 -56
c0 -39 30 -64 139 -95c120 -34 186 -97 186 -200c0 -111 -68 -183 -181 -201v-91h-128z" />
    <glyph glyph-name="Euro.tosf" 
d="M4 382l7 81h63c28 142 130 257 298 257c75 0 158 -29 221 -97l-67 -90c-43 35 -94 58 -149 58c-78 0 -125 -49 -143 -128h264l-7 -81h-267c-1 -11 -1 -21 -1 -32c0 -10 0 -19 1 -27h262l-6 -81h-246c21 -78 67 -116 144 -116c62 0 111 22 158 55l61 -100
c-85 -74 -150 -94 -244 -94c-152 0 -259 108 -281 255h-79l6 81h66c-1 8 -1 17 -1 26c0 11 0 22 1 33h-61z" />
    <glyph glyph-name="cent.tosf" 
d="M503 179l49 -105c-43 -33 -96 -58 -156 -69v-102h-130v99c-121 16 -208 107 -208 269c0 147 81 256 209 272v97h129v-98c106 -22 160 -92 162 -217h-141c-4 60 -35 85 -82 85c-60 0 -98 -37 -98 -133c0 -91 41 -143 115 -143c51 0 99 17 151 45z" />
    <glyph glyph-name="sterling.tosf" 
d="M343 233c0 -38 -21 -76 -43 -101h239v-132h-473v118l67 10c27 26 49 66 49 105c0 24 -11 61 -18 78h-97v102h61c-19 35 -33 68 -33 112c0 112 93 195 227 195c88 0 166 -34 222 -92l-65 -95c-42 30 -84 55 -138 55c-53 0 -73 -32 -73 -76c0 -28 12 -62 30 -99h139v-102
h-111c8 -20 17 -56 17 -78z" />
    <glyph glyph-name="yen.tosf" 
d="M56 294v88h124l-175 328h175l120 -260l126 260h169l-182 -328h130v-88h-168v-65h168v-88h-168v-141h-157v141h-163v88h163v65h-162z" />
    <glyph glyph-name="florin.tosf" 
d="M27 -81h39c33 0 51 21 61 68l69 321h-81v110h104l20 102c21 108 54 190 185 190h91v-123h-60c-40 0 -52 -35 -61 -84l-17 -85h88v-110h-110l-63 -297c-28 -134 -58 -211 -192 -211h-73v119z" />
    <glyph glyph-name="currency" unicode="&#xa4;" horiz-adv-x="577" 
d="M382 338c0 56 -40 93 -94 93c-50 0 -95 -37 -95 -93c0 -59 41 -96 95 -96s94 43 94 96zM34 518l69 74l84 -88c29 17 63 28 100 28c36 0 70 -9 98 -26l84 84l73 -73l-86 -85c19 -28 30 -60 30 -95c0 -36 -11 -70 -30 -99l86 -83l-73 -72l-84 85c-32 -18 -65 -27 -98 -27
c-36 0 -69 10 -98 27c-29 -28 -56 -57 -85 -85l-70 72l84 84c-17 27 -28 62 -28 98c0 33 11 67 28 95z" />
    <glyph glyph-name="apple" horiz-adv-x="2406" 
d="M1677 -97l-17 -8c5 -11 9 -23 9 -37c0 -61 -92 -112 -242 -112c-80 0 -146 21 -190 57c-49 -25 -103 -43 -159 -43c-60 0 -115 15 -148 43c-43 -61 -145 -85 -250 -85c-101 0 -246 56 -241 172c-27 14 -48 36 -55 56c-32 -13 -70 -22 -118 -22c-113 0 -162 98 -138 205
c16 77 87 150 172 189c-23 33 -29 79 -19 122c24 108 98 163 156 163c4 0 8 0 12 -1c41 40 127 56 187 56c51 0 108 -8 155 -26c49 68 135 111 227 111c6 0 13 -1 19 -2c48 66 159 103 289 103c110 0 202 -54 247 -134c53 17 111 23 168 23c69 0 241 -25 274 -115
c16 9 35 15 54 15c77 0 131 -57 115 -125c-5 -25 -10 -34 -20 -49c54 -33 88 -100 68 -189c-8 -31 -19 -58 -34 -80c67 -46 79 -128 64 -196c-22 -98 -123 -124 -206 -124c-22 0 -45 3 -66 8c-19 -24 -67 -46 -127 -46c-58 0 -127 29 -148 88l-28 -12
c13 -82 100 -123 187 -123c54 0 97 10 159 40l1 -2c-47 -25 -100 -42 -159 -42c-92 0 -179 32 -198 122zM692 505c16 0 33 -2 50 -7c2 25 8 50 17 74c-28 8 -60 13 -94 13c-46 0 -96 -8 -149 -29c6 -11 9 -24 9 -39c0 -75 -46 -119 -88 -119c-30 0 -47 28 -39 63
c4 21 19 39 38 54c-9 13 -13 31 -8 50c3 13 9 25 19 35c-3 1 -7 1 -10 1c-57 0 -121 -53 -145 -161c-10 -39 -7 -85 13 -120c38 16 76 27 115 27c30 0 56 -20 51 -43c-4 -23 -25 -35 -74 -35c-43 0 -75 17 -95 44c-77 -40 -134 -113 -150 -181c-27 -117 13 -206 114 -206
c47 0 85 9 117 22c-11 26 -11 54 -3 83c9 39 42 62 67 62c26 0 30 -30 26 -51c-5 -33 -33 -70 -84 -94c6 -20 25 -40 51 -53c0 6 1 13 3 19c14 65 72 113 137 121c0 0 0 -1 1 -1c-61 -8 -109 -57 -123 -120c-2 -9 -3 -17 -4 -26c26 -10 58 -13 90 -4v-1
c-32 -11 -63 -9 -90 0c0 -104 122 -163 226 -163c102 0 209 22 249 84c-23 21 -34 47 -26 80c2 13 8 24 16 34c-7 7 -16 13 -26 18c-65 -51 -138 -95 -200 -95c-47 0 -94 23 -82 75c10 42 84 51 137 51c37 0 84 -5 122 -19c80 60 161 130 262 134c-7 18 -13 39 -16 59
c-20 -16 -41 -23 -62 -23c-34 0 -41 39 -35 71l35 158h-80c-14 -72 -31 -156 -43 -213c-17 -85 -91 -128 -146 -128c-35 0 -74 11 -102 44l2 2c21 -18 37 -30 68 -30c68 0 94 72 104 114c14 54 34 141 50 211h-45c0 2 0 5 1 8h46l17 68c17 80 78 127 140 127
c31 0 101 -7 116 -64c18 9 62 26 99 26c39 0 59 -9 47 -66c-5 -24 -13 -56 -21 -89c79 12 124 63 143 120c-30 7 -61 33 -61 71c0 31 16 61 43 87c-29 37 -73 59 -111 59c-55 0 -86 -32 -86 -69c0 -19 9 -39 27 -50l-3 -2c-18 10 -37 33 -37 52c0 43 37 73 99 73
c39 0 84 -23 113 -60c33 31 82 56 137 72c-42 75 -130 129 -245 129c-119 0 -227 -34 -276 -101c30 -9 61 -33 49 -71c-5 -19 -21 -31 -47 -31c-24 0 -43 26 -35 62c4 14 10 29 18 42c-5 1 -11 1 -17 1c-92 0 -169 -46 -218 -113c46 -20 80 -52 89 -99c2 -9 2 -25 -4 -35
l-2 2c4 9 5 24 3 33c-9 45 -43 76 -88 96c-12 -16 -22 -34 -30 -53c34 -11 103 -38 91 -95c-6 -24 -63 -51 -99 -66c-49 -20 -92 -46 -112 -87c-15 -31 -16 -82 18 -97c7 86 76 129 115 129c47 0 67 -38 46 -74c-22 -36 -57 -51 -98 -59c-2 -43 13 -75 35 -75
c18 0 35 11 46 25c-7 10 -13 17 -10 27c2 9 7 12 19 12c6 0 9 -3 10 -7c1 -6 -1 -12 -3 -16c-3 -5 -5 -10 -9 -14c11 -14 27 -31 22 -57c-7 -31 -46 -55 -98 -55c-43 0 -137 38 -212 73c-19 -11 -43 -18 -70 -18c-35 0 -73 22 -73 62c0 18 15 29 21 29c13 0 34 -19 71 -39
c4 10 9 19 12 26l88 224c26 66 80 85 114 85zM1421 148c40 0 64 35 78 92c8 35 3 54 -6 77l2 1c13 -27 17 -51 10 -82c-15 -66 -47 -102 -116 -102c-47 0 -74 62 -59 126c16 66 72 96 108 96c20 0 34 -5 41 -15c14 9 30 14 49 14h27l15 68c17 79 78 127 140 127
c20 0 44 -2 72 -14l10 -6c13 9 27 14 42 18c-3 8 -3 17 -2 26c3 23 17 37 34 51l3 -1c-15 -17 -21 -34 -24 -50c-2 -8 -1 -17 0 -24c9 1 18 2 26 2c38 0 68 -22 84 -52c33 11 51 37 57 61c4 18 4 34 0 48c-25 -19 -41 -44 -41 -44c0 15 16 35 39 50
c-30 89 -198 116 -269 116c-58 0 -115 -8 -165 -24c20 -39 28 -83 17 -130c-16 -57 -74 -102 -128 -102c-3 0 -8 0 -11 1c-19 -60 -65 -115 -148 -127c-16 -66 -34 -137 -40 -165c-9 -46 -3 -79 35 -79c20 0 24 2 50 16l3 -3c-37 -25 -77 -34 -109 -34c-42 0 -67 30 -53 89
c10 48 31 115 47 174h-118l-36 -160c-3 -16 0 -38 15 -38c5 0 10 2 14 5c0 9 -1 18 -1 27c0 45 16 65 34 65c17 0 18 -16 14 -34c-7 -32 -19 -42 -34 -60c2 -24 8 -48 15 -70c36 -1 53 -9 51 -26c-1 -8 -5 -13 -13 -14c5 1 8 7 9 14c2 15 -14 23 -46 24c7 -20 19 -37 33 -38
c-21 1 -35 16 -43 38c-88 -5 -147 -81 -238 -143c10 -5 19 -10 26 -17c31 36 93 52 147 52c37 0 71 -9 105 -22c2 9 3 19 6 28c13 64 101 104 135 104c13 0 7 -17 16 -29c19 -22 39 -31 69 -31c68 0 95 72 106 114l48 211h-25c-18 0 -33 -6 -43 -13c4 -7 6 -13 6 -20
c0 -11 -8 -18 -18 -18s-16 8 -16 16c0 12 7 20 16 26c-5 5 -10 8 -21 8c-25 0 -46 -33 -61 -97c-13 -56 5 -101 30 -101zM2149 211l3 1c12 -4 22 -9 32 -14c12 22 21 48 28 78c18 82 -5 145 -50 179c-28 -45 -70 -49 -80 -49c-18 0 -46 12 -46 34s23 42 50 42
c24 0 47 -5 68 -17c8 14 14 29 19 50c15 66 -35 117 -104 117c-19 0 -37 -8 -52 -19c5 -16 5 -33 1 -53c-6 -25 -25 -51 -61 -63c11 -22 14 -47 8 -71c-16 -60 -73 -79 -130 -79h-72c-14 -54 -25 -107 -38 -160c-2 -16 1 -38 17 -38c7 0 15 6 22 13c-7 19 -8 41 -2 63
c5 28 23 45 33 45c18 0 13 -26 10 -38c-8 -31 -19 -55 -31 -71c7 -27 23 -49 47 -61c8 45 36 59 63 59c19 0 36 -15 30 -35c-3 -21 -25 -35 -51 -35c-10 0 -18 1 -27 3c0 -39 24 -64 60 -74c14 30 50 52 90 52c9 0 19 -1 28 -5l-1 -2c-10 4 -19 5 -27 5
c-37 0 -70 -22 -83 -52c9 -2 19 -3 29 -3c70 0 124 35 153 98c-15 -4 -36 -6 -51 -6c-76 0 -102 57 -92 103c13 54 57 82 101 82c50 0 87 -47 73 -127c-4 -20 -6 -28 -15 -43c35 13 61 38 81 75c-10 6 -21 11 -33 16zM1745 68l2 -2c-42 -43 -68 -81 -62 -148l28 9
c-13 46 1 95 46 129l3 -3c-48 -34 -55 -89 -45 -123c48 16 106 29 154 29h21c-3 12 -3 25 -1 40c1 5 2 11 4 16c-44 10 -76 39 -74 82c-25 10 -43 30 -54 55c-22 -25 -47 -34 -73 -34c-34 0 -40 39 -34 71c11 53 22 105 34 158h-74l-46 -212c-18 -86 -90 -129 -145 -129
c-35 0 -76 9 -102 44c-11 15 -1 30 -13 30c-37 0 -122 -51 -125 -137c43 -18 85 -43 127 -62c61 38 148 71 205 71c53 0 106 -15 132 -48c7 4 15 8 23 11c-6 63 22 110 69 153zM1998 -101c0 -6 -3 -13 -8 -20c21 -5 44 -8 66 -8c71 0 165 30 189 129c14 62 12 139 -50 186
c-24 -35 -57 -59 -96 -71c-32 -67 -93 -104 -167 -104c-11 0 -21 1 -30 2c-2 -4 -3 -9 -4 -14c-2 -15 -2 -29 1 -41c62 -5 99 -26 99 -59zM755 495c9 -4 20 -15 16 -26c-3 -7 -9 -11 -18 -10c-7 1 -12 14 -11 24v10c-7 2 -16 4 -22 4c-35 0 -62 -42 -76 -81l-70 -220
c-7 -23 -21 -41 -39 -55c71 -35 152 -73 204 -72c75 1 97 53 89 81c-1 7 -8 14 -14 20c-16 -22 -45 -36 -82 -36c-39 0 -68 40 -66 91c-38 12 -46 65 -30 100c21 41 73 71 122 88c35 12 82 41 88 65c13 54 -39 79 -79 91c-10 -23 -17 -47 -20 -71zM948 -159
c-3 -11 -8 -22 -14 -32c3 -3 6 -7 10 -10c32 -27 87 -36 134 -36c58 0 102 22 144 51c-34 36 -52 82 -49 134c-34 13 -69 22 -105 22c-56 0 -110 -20 -135 -61c11 -13 17 -29 17 -48c0 -6 0 -12 -2 -20zM1918 492c-36 0 -72 22 -83 52c-13 -3 -25 -9 -36 -19
c10 -7 15 -18 15 -26c0 -11 -8 -19 -22 -19c-16 0 -23 9 -23 18c0 6 2 11 6 15c3 6 9 9 13 13c-33 17 -51 15 -63 15c-36 0 -71 -39 -83 -95l-20 -91h17c62 0 125 42 131 76c-1 8 0 22 9 22c6 0 12 -8 9 -15c-2 -9 -4 -19 -8 -28c-6 -19 -13 -37 -16 -55h67
c43 0 101 15 118 72c6 21 4 46 -4 67c-8 -1 -17 -2 -27 -2zM1134 531c-30 10 -40 10 -51 10c-37 0 -75 -39 -88 -95l-19 -91h19c55 0 122 29 146 91h2l-21 -91h119c9 31 17 59 22 79c11 41 -14 61 -42 61c-14 0 -25 -6 -34 -12l-4 -1c1 -3 2 -7 2 -11c0 -11 -2 -20 -14 -20
c-7 0 -14 7 -10 17c3 7 9 12 18 16c-7 23 -27 39 -45 47zM1656 -142c0 12 -3 23 -7 33c-58 -27 -121 -51 -186 -51c-44 0 -83 12 -121 28c-29 -20 -63 -42 -100 -62c42 -36 105 -58 185 -58c147 0 229 50 229 110zM1589 577c10 46 3 91 -16 129c-54 -18 -101 -45 -131 -78
c15 -23 24 -49 24 -79c0 -23 -4 -48 -11 -71c3 -1 6 -1 9 -1c51 0 112 44 125 100zM2100 160c20 87 -19 128 -57 128c-49 0 -78 -46 -80 -95c-2 -30 6 -67 39 -81c9 -3 19 -5 32 -5c17 0 37 2 53 7c7 15 10 24 13 46zM1871 -42c-54 0 -106 -17 -152 -37
c20 -58 87 -88 144 -88c55 0 98 24 112 49c-40 12 -73 36 -82 76h-22zM1521 -50c-26 0 -50 -7 -75 -18c-34 -16 -68 -39 -102 -62c38 -16 77 -29 119 -29c59 0 105 23 155 47l25 12c-21 34 -69 50 -122 50zM693 -157c53 0 110 51 175 104c-38 13 -83 18 -120 18
c-49 0 -114 -12 -126 -51c-12 -44 26 -71 71 -71zM640 655c-64 0 -141 -17 -178 -55c23 -6 42 -19 53 -41c51 19 105 27 150 27c34 0 67 -4 95 -12c7 20 17 38 29 55c-46 19 -101 26 -149 26zM521 517c0 15 -3 27 -8 38l-7 -3c-20 -9 -43 -21 -62 -37c6 -12 18 -19 36 -18
c1 -1 1 -2 1 -2c-18 -2 -32 5 -42 16c-15 -14 -27 -30 -31 -50c-7 -34 3 -61 29 -61c37 0 84 48 84 117zM420 345c-40 0 -77 -11 -113 -28c17 -27 47 -47 90 -47c46 0 65 12 70 34c4 23 -18 41 -47 41zM389 29c-5 -28 -7 -53 -1 -77c48 24 74 59 80 90c2 15 4 49 -21 49
c-18 0 -49 -22 -58 -62zM1229 -180c28 17 55 43 85 59l-54 27c-25 13 -47 25 -71 35c-4 -45 11 -88 40 -121zM795 346c-22 0 -39 -24 -54 -68c-4 -14 -9 -32 -11 -47c40 9 75 24 92 58c4 7 6 14 6 21c0 19 -12 36 -33 36zM1462 549c0 29 -9 55 -23 76
c-20 -23 -32 -49 -32 -77c0 -36 19 -62 44 -69c7 23 11 47 11 70zM2082 408c10 0 44 11 69 54c-18 12 -41 18 -65 18s-45 -18 -45 -40s25 -32 41 -32zM1095 668c12 34 -17 59 -47 68c-9 -13 -16 -26 -20 -42c-9 -38 10 -54 24 -54c24 0 38 10 43 28zM1863 91
c21 0 36 8 43 33c3 11 -3 32 -22 32c-28 0 -44 -23 -48 -62c8 -2 17 -3 27 -3zM392 177c0 -19 15 -48 38 -48c19 0 33 17 43 34l-54 29c-8 5 -12 6 -16 6c-3 0 -11 -5 -11 -21zM1918 494c9 0 18 1 26 3c-12 29 -36 52 -73 52c-8 0 -17 -1 -25 -2c8 -30 38 -53 72 -53z
M443 565c-5 -18 -5 -33 -1 -45c20 15 43 26 62 34l8 3c-11 22 -30 36 -51 41c-9 -9 -15 -21 -18 -33zM1980 -101c0 32 -29 52 -80 58c9 -37 39 -60 76 -73c3 5 4 10 4 15zM1771 170c3 4 6 9 8 14c13 22 20 49 20 48c2 6 10 37 -4 37c-8 0 -17 -18 -24 -44
c-4 -18 -4 -37 0 -55zM921 -121c-8 -28 -2 -51 12 -68c8 14 13 31 13 50c0 18 -6 32 -15 45c-5 -8 -8 -17 -10 -27zM1126 164c14 15 24 27 28 48c3 15 6 32 -7 32c-11 0 -22 -19 -22 -63c0 -5 0 -12 1 -17zM1782 498c0 -8 4 -16 10 -16c11 0 18 7 18 17s-5 19 -15 23
c-6 -6 -13 -14 -13 -24zM752 491c-2 0 -3 0 -6 1v-9c-1 -11 2 -22 8 -23c5 0 10 4 12 9c5 11 -6 17 -14 22zM1480 332c-6 -3 -13 -12 -13 -21c0 -7 3 -11 8 -11c8 0 11 7 11 14s-3 14 -6 18zM823 191c1 3 2 6 2 9c1 6 -1 11 -6 11s-10 -9 -11 -13c-1 -8 2 -14 6 -19z
M1180 471v9c-8 -3 -13 -9 -15 -13c-3 -8 1 -14 6 -14c9 0 9 8 9 18z" />
    <glyph glyph-name="arrowright" unicode="&#x2192;" horiz-adv-x="500" 
d="M0 198v126h284l-80 80l85 74l211 -216l-214 -218l-82 75l80 79h-284z" />
    <glyph glyph-name="arrowleft" unicode="&#x2190;" horiz-adv-x="500" 
d="M500 324v-126h-284l80 -79l-82 -75l-214 218l211 216l85 -74l-80 -80h284z" />
    <glyph glyph-name="arroewup" horiz-adv-x="500" 
d="M312 11h-124v293l-81 -79l-75 74l218 212l217 -214l-75 -72l-80 80v-294z" />
    <glyph glyph-name="arrowdown" unicode="&#x2193;" horiz-adv-x="500" 
d="M188 511h124v-294l80 80l75 -72l-217 -214l-218 212l75 74l81 -79v293z" />
    <glyph glyph-name="arrowNW" horiz-adv-x="500" 
d="M470 127l-88 -88l-198 198v-111h-116v312h307v-104h-113z" />
    <glyph glyph-name="arrowNE" horiz-adv-x="500" 
d="M117 38l-88 88l208 207h-113v104h307v-312h-116v111z" />
    <glyph glyph-name="arrowSE" horiz-adv-x="500" 
d="M29 360l88 88l198 -198v111h116v-312h-307v104h113z" />
    <glyph glyph-name="arrowSW" horiz-adv-x="500" 
d="M382 448l88 -88l-208 -207h113v-104h-307v312h116v-111z" />
    <glyph glyph-name="arrowLeftRight" horiz-adv-x="1000" 
d="M218 198l80 -79l-84 -75l-214 218l211 216l85 -74l-80 -80h566l-80 80l88 78l208 -220l-214 -218l-84 75l80 79h-562z" />
    <glyph glyph-name="arrowUpDown" horiz-adv-x="750" 
d="M440 -61l79 80l75 -84l-218 -214l-216 211l74 85l80 -80v566l-80 -80l-78 88l220 208l218 -214l-75 -84l-79 80v-562z" />
    <glyph glyph-name="arrowright.750" horiz-adv-x="750" 
d="M0 198v126h534l-80 80l85 74l211 -216l-214 -218l-82 75l80 79h-534z" />
    <glyph glyph-name="arrowup.750" horiz-adv-x="750" 
d="M437 -108h-124v543l-81 -79l-75 74l218 212l217 -214l-75 -72l-80 80v-544z" />
    <glyph glyph-name="arrowleft.750" horiz-adv-x="750" 
d="M750 324v-126h-534l80 -79l-82 -75l-214 218l211 216l85 -74l-80 -80h534z" />
    <glyph glyph-name="arrowdown.750" horiz-adv-x="750" 
d="M313 630h124v-544l80 80l75 -72l-217 -214l-218 212l75 74l81 -79v543z" />
    <glyph glyph-name="arrowNW.750" horiz-adv-x="750" 
d="M670 40l-88 -88l-372 370v-111h-116v312h307v-104h-113z" />
    <glyph glyph-name="arrowNE.750" horiz-adv-x="750" 
d="M168 -53l-88 88l382 379h-113v104h307v-312h-116v111z" />
    <glyph glyph-name="arrowSE.750" horiz-adv-x="750" 
d="M80 483l88 88l372 -370v111h116v-312h-307v104h113z" />
    <glyph glyph-name="arrowSW.750" horiz-adv-x="750" 
d="M582 571l88 -88l-382 -379h113v-104h-307v312h116v-111z" />
    <glyph glyph-name="arrowCircleLeft" horiz-adv-x="750" 
d="M210 328c0 124 79 211 242 211c153 0 235 -79 235 -224h-124c0 68 -15 125 -111 125c-88 0 -118 -39 -118 -120v-102l80 80l75 -72l-217 -214l-218 212l75 74l81 -79v109z" />
    <glyph glyph-name="arrowCircleRight" horiz-adv-x="750" 
d="M540 337v-118l81 79l75 -74l-218 -212l-217 214l75 72l80 -80v102c0 81 -30 120 -111 120c-103 0 -118 -57 -118 -125h-124c0 145 92 224 246 224c162 0 231 -78 231 -202z" />
    <glyph glyph-name="arrowDubLeft" horiz-adv-x="750" 
d="M342 416l-45 -46h378v-84h-461l-20 -21l20 -21h461v-84h-379l42 -43l-85 -78l-217 223l221 228z" />
    <glyph glyph-name="arrowDubTop" horiz-adv-x="750" 
d="M545 333l-46 45v-378h-84v461l-21 20l-21 -20v-461h-84v379l-43 -42l-78 85l223 217l228 -221z" />
    <glyph glyph-name="arrowDubRight" horiz-adv-x="750" 
d="M453 370l-45 46l85 74l221 -228l-217 -223l-85 78l42 43h-379v84h461l20 21l-20 21h-461v84h378z" />
    <glyph glyph-name="arrowDubDown" horiz-adv-x="750" 
d="M484 248l46 45l74 -85l-228 -221l-223 217l78 85l43 -42v379h84v-461l21 -20l21 20v461h84v-378z" />
    <glyph glyph-name="triangleBlackLeft" horiz-adv-x="610" 
d="M548 22l-486 236l486 232v-468z" />
    <glyph glyph-name="triangleBlackRight" horiz-adv-x="610" 
d="M548 258l-486 -236v468z" />
    <glyph glyph-name="triangleWhiteLeft" horiz-adv-x="610" 
d="M476 132v250l-248 -122v0zM548 490v-465l-486 234v2z" />
    <glyph glyph-name="triangleWhiteRight" horiz-adv-x="610" 
d="M134 382v-250l248 128v0zM62 25v465l486 -229v-2z" />
    <glyph glyph-name="square" horiz-adv-x="610" 
d="M479 151h-349v349h349v-349z" />
    <glyph glyph-name="square.open" horiz-adv-x="610" 
d="M434 196v259h-259v-259h259zM479 151h-349v349h349v-349z" />
    <glyph glyph-name="circle" unicode="&#x25cb;" horiz-adv-x="610" 
d="M305 119c-113 0 -205 92 -205 205s92 205 205 205s205 -92 205 -205s-92 -205 -205 -205z" />
    <glyph glyph-name="circle.open" horiz-adv-x="610" 
d="M305 119c-113 0 -205 92 -205 205s92 205 205 205s205 -92 205 -205s-92 -205 -205 -205zM305 167c85 0 151 74 151 160c0 85 -66 153 -151 153c-86 0 -150 -71 -150 -156c0 -86 64 -157 150 -157z" />
    <glyph glyph-name="triangle.left" horiz-adv-x="425" 
d="M275 203l-185 117l185 114v-231z" />
    <glyph glyph-name="triangle" unicode="&#x25b3;" horiz-adv-x="425" 
d="M335 320l-185 -117v231z" />
    <glyph glyph-name="raute" horiz-adv-x="610" 
d="M514 325l-210 -209l-209 210l210 209z" />
    <glyph glyph-name="circumflex" unicode="&#x2c6;" horiz-adv-x="500" 
d="M202 765h97l113 -142l-63 -47l-97 84l-96 -84l-68 46z" />
    <glyph glyph-name="caron" unicode="&#x2c7;" horiz-adv-x="500" 
d="M298 581h-97l-113 142l66 49l96 -86l96 84l66 -46z" />
    <glyph glyph-name="uni02C9" unicode="&#x2c9;" horiz-adv-x="500" 
d="M106 602v103h289v-103h-289z" />
    <glyph glyph-name="breve" unicode="&#x2d8;" horiz-adv-x="500" 
d="M250 673c50 0 65 25 71 71l94 -14c-8 -89 -59 -139 -165 -139c-107 0 -155 46 -168 139l97 15c7 -49 25 -72 71 -72z" />
    <glyph glyph-name="dieresis" unicode="&#xa8;" horiz-adv-x="500" 
d="M279 660c0 40 29 72 81 72c57 0 82 -32 82 -72c0 -41 -33 -70 -81 -70c-54 0 -82 28 -82 70zM57 660c0 40 31 72 82 72c56 0 81 -32 81 -72c0 -41 -32 -70 -80 -70c-55 0 -83 28 -83 70z" />
    <glyph glyph-name="macron" unicode="&#xaf;" horiz-adv-x="500" 
d="M106 602v103h289v-103h-289z" />
    <glyph glyph-name="degree" unicode="&#xb0;" horiz-adv-x="331" 
d="M96 669c0 -44 28 -73 71 -73c39 0 70 30 70 73s-30 71 -70 71c-43 0 -71 -28 -71 -71zM40 668c0 71 58 124 127 124c68 0 124 -53 124 -124c0 -70 -55 -124 -124 -124c-74 0 -127 50 -127 124z" />
    <glyph glyph-name="acute" unicode="&#xb4;" horiz-adv-x="500" 
d="M125 649l164 150l78 -95l-177 -129z" />
    <glyph glyph-name="grave" unicode="`" horiz-adv-x="500" 
d="M217 795l159 -143l-65 -77l-174 126z" />
    <glyph glyph-name="cedilla" unicode="&#xb8;" horiz-adv-x="500" 
d="M150 -209l12 63c19 -6 37 -10 60 -10c28 0 43 8 43 29c0 25 -23 28 -65 28h-16l22 105h63l-10 -51c52 -4 97 -24 97 -81c0 -62 -42 -100 -117 -100c-39 0 -71 9 -89 17z" />
    <glyph glyph-name="dotaccent" unicode="&#x2d9;" horiz-adv-x="500" 
d="M151 660c0 55 43 83 98 83c58 0 99 -28 99 -83c0 -52 -41 -80 -99 -80c-54 0 -98 28 -98 80z" />
    <glyph glyph-name="ring" unicode="&#x2da;" horiz-adv-x="500" 
d="M211 676c0 -24 16 -37 40 -37c21 0 38 15 38 38s-16 36 -38 36c-24 0 -40 -15 -40 -37zM140 673c0 65 48 104 111 104c61 0 109 -36 109 -100c0 -63 -48 -102 -109 -102c-67 0 -111 34 -111 98z" />
    <glyph glyph-name="ogonek" unicode="&#x2db;" horiz-adv-x="500" 
d="M243 17l86 -5v-10c-47 -45 -73 -88 -73 -119c0 -17 9 -28 29 -28c17 0 32 5 53 13l21 -70c-26 -15 -72 -32 -114 -32c-76 0 -105 35 -105 85c0 63 43 117 103 166z" />
    <glyph glyph-name="tilde" unicode="&#x2dc;" horiz-adv-x="500" 
d="M349 726l70 -28c-14 -57 -35 -105 -95 -105c-47 0 -102 33 -129 33c-17 0 -26 -9 -39 -38l-73 28c16 60 48 106 97 106c52 0 97 -34 129 -34c18 0 25 6 40 38z" />
    <glyph glyph-name="hungarumlaut" unicode="&#x2dd;" horiz-adv-x="500" 
d="M162 779l85 -57l-123 -144l-71 47zM322 766l84 -59l-126 -130l-67 48z" />
    <glyph glyph-name="commaaccent" horiz-adv-x="500" 
d="M160 -236l41 183l128 -33l-65 -180z" />
    <glyph glyph-name="revcommaaccent" horiz-adv-x="500" 
d="M313 761l-42 -185l-132 33l65 181z" />
    <glyph glyph-name="tilde.cap" horiz-adv-x="500" 
d="M349 910l70 -28c-14 -57 -35 -105 -95 -105c-47 0 -102 33 -129 33c-17 0 -26 -9 -39 -38l-73 28c16 60 48 106 97 106c52 0 97 -34 129 -34c18 0 25 6 40 38z" />
    <glyph glyph-name="ring.cap" horiz-adv-x="500" 
d="M211 842c0 -24 16 -37 40 -37c21 0 38 15 38 38s-16 36 -38 36c-24 0 -40 -15 -40 -37zM140 839c0 65 48 104 111 104c61 0 109 -36 109 -100c0 -63 -48 -102 -109 -102c-67 0 -111 34 -111 98z" />
    <glyph glyph-name="circumflex.cap" horiz-adv-x="500" 
d="M202 925h97l111 -119l-61 -50l-97 64l-96 -65l-63 53z" />
    <glyph glyph-name="acute.cap" horiz-adv-x="500" 
d="M128 826l184 113l57 -103l-195 -89z" />
    <glyph glyph-name="grave.cap" horiz-adv-x="500" 
d="M186 939l183 -113l-46 -79l-195 89z" />
    <glyph glyph-name="dieresis.cap" horiz-adv-x="500" 
d="M279 838c0 40 29 72 81 72c57 0 82 -32 82 -72c0 -41 -33 -70 -81 -70c-54 0 -82 28 -82 70zM57 838c0 40 31 72 82 72c56 0 81 -32 81 -72c0 -41 -32 -70 -80 -70c-55 0 -83 28 -83 70z" />
    <glyph glyph-name="caron.cap" horiz-adv-x="500" 
d="M301 762h-97l-111 119l61 50l97 -64l96 65l63 -53z" />
    <glyph glyph-name="macron.cap" horiz-adv-x="500" 
d="M105 783v103h289v-103h-289z" />
    <glyph glyph-name="dotaccent.cap" horiz-adv-x="500" 
d="M151 851c0 55 43 83 98 83c58 0 99 -28 99 -83c0 -52 -41 -80 -99 -80c-54 0 -98 28 -98 80z" />
    <glyph glyph-name="cedilla.cap" horiz-adv-x="500" 
d="M150 -209l12 63c19 -6 37 -10 60 -10c28 0 43 8 43 29c0 25 -23 28 -65 28h-16l22 105h63l-10 -51c52 -4 97 -24 97 -81c0 -62 -42 -100 -117 -100c-39 0 -71 9 -89 17z" />
    <glyph glyph-name="hungarumlaut.cap" horiz-adv-x="500" 
d="M180 965l88 -64l-133 -153l-68 50zM354 950l80 -71l-136 -132l-63 56z" />
    <glyph glyph-name="apostrophe" unicode="&#x2bc;" horiz-adv-x="500" 
d="M190 666c0 36 27 63 65 63c49 0 74 -37 74 -82c0 -70 -35 -115 -112 -141l-21 43c39 16 57 39 59 66c-32 -9 -65 16 -65 51z" />
    <glyph glyph-name="commaaccent.cap" horiz-adv-x="500" 
d="M160 -236l41 183l128 -33l-65 -180z" />
    <glyph glyph-name="breve.cap" horiz-adv-x="500" 
d="M250 847c50 0 64 21 71 64l94 -14c-8 -87 -59 -132 -165 -132c-107 0 -154 39 -168 132l97 14c8 -44 25 -64 71 -64z" />
    <glyph glyph-name="caron.alt" horiz-adv-x="500" 
d="M164 514l28 206h135l-55 -206h-108z" />
    <glyph glyph-name="ogonek.cap" horiz-adv-x="500" 
d="M243 17l86 -5v-10c-47 -45 -73 -88 -73 -119c0 -17 9 -28 29 -28c17 0 32 5 53 13l21 -70c-26 -15 -72 -32 -114 -32c-76 0 -105 35 -105 85c0 63 43 117 103 166z" />
    <glyph glyph-name="uni00A0" unicode="&#xa0;" horiz-adv-x="205" 
 />
    <glyph glyph-name=".null" horiz-adv-x="0" 
 />
    <glyph glyph-name="CR" horiz-adv-x="0" 
 />
    </font>
</defs>
</svg>
